Loading...
Error

Скачать Высокие каблуки / Tacones lejanos (Педро Альмодовар) [1991, драма, мелодрама, комедия, BDRip-AVC] [MVO] торрент без регистрации

 
Статистика раздачи
Размер:  1,45 GB   |    Скачан:  131 раз
Сидов:  1  [  0 KB/s  ]  
 
Автор Сообщение

Marsianka

[] 

Высокие каблуки / Tacones lejanos (1991) BDRip-AVC от PowerTracker

Жанр: драма, мелодрама, комедия
Страна: Франция , Испания
Режиссер: Педро Альмодовар
В ролях: Виктория Абриль, Мигель Бозе, Мариса Паредес, Анна Лисаран, Майрата ОВисиедо, Кристина Маркос, Феодор Аткин, Педро Диас дель Корраль, Бибиана Фернандес, Начо Мартинес, Мириам Диас-Арока, Росио Муньос, Лупе Баррадо, Хуан Хосе Отеги, Паула Сольдевила, Хавьер Бардем, Ева Сиба...

Сюжет фильма: Испанская телеведущая Ребека (Абриль) встречает в аэропорту свою мать Бекки (Паредес) знаменитую актрису и певицу, которая на протяжении многих лет жила и работала в Мексике. Ребека всю жизнь старалась подражать матери и даже вышла замуж за одного из её бывших любовников, Мануэля. После того, как мать возвращается в Мадрид, её отношения с Мануэлем возобновляются. Однажды вечером труп застреленного Мануэля находят на загородной вилле. Ведущий расследование судья Домингес (Бозе) выясняет, что перед убийством на вилле поочерёдно побывали Ребека и её мать. Обе женщины оказываются в числе подозреваемых. Однако судья неравнодушен только к одной из них...

Мировая премьера: 23 октября 1991



Продолжительность: 01:53:34
Качество видео: BDRip-AVC
Видео: кодек: x264, размер кадра: 1022х512, битрейт: 1634 кб/с, bit/pixel: 0.130
Аудио: язык: Русский , перевод: многоголосый закадровый (Союз Видео), кодек: AC3 2.0, битрейт: 192.00 кб/с

&
Общее
Уникальный идентификатор : 253089019810357174598432758966443240892 (0xBE672C144E389A9198BC65E75D8EEDBC)
Полное имя : D:Tacones lejanos.1991.BDRip-AVC.PT.mkv
Формат : Matroska
Версия формата : Version 2
Размер файла : 1,45 Гбайт
Продолжительность : 1 ч. 53 м.
Общий поток : 1825 Кбит/сек
Название фильма : Высокие каблуки / Tacones lejanos (1991) BDRip-AVC rip by rulya74
Дата кодирования : UTC 2012-07-03 14:03:42
Программа кодирования : mkvmerge v5.6.0 ('Kenya Kane') built on May 27 2012 16:44:04
Библиотека кодирования : libebml v1.2.3 + libmatroska v1.3.0

Видео
Идентификатор : 1
Формат : AVC
Формат/Информация : Advanced Video Codec
Профиль формата : High@L4.1
Параметр CABAC формата : Да
Параметр ReFrames формата : 15 кадров
Идентификатор кодека : V_MPEG4/ISO/AVC
Продолжительность : 1 ч. 53 м.
Битрейт : 1634 Кбит/сек
Ширина : 1022 пикселя
Высота : 512 пикселей
Соотношение сторон : 1,996
Частота кадров : 24,000 кадра/сек
Цветовое пространство : YUV
Субдискретизация насыщенности : 4:2:0
Битовая глубина : 8 бит
Тип развёртки : Прогрессивная
Бит/(Пиксели*Кадры) : 0.130
Размер потока : 1,27 Гбайт (87%)
Библиотека кодирования : x264 core 125 r2200 999b753
Настройки программы : cabac=1 / ref=15 / deblock=1:-3:-3 / analyse=0x3:0x113 / me=umh / subme=10 / psy=1 / psy_rd=1.00:0.00 / mixed_ref=1 / me_range=34 / chroma_me=1 / trellis=2 / 8x8dct=1 / cqm=0 / deadzone=21,11 / fast_pskip=1 / chroma_qp_offset=-2 / threads=15 / lookahead_threads=2 / sliced_threads=0 / nr=0 / decimate=1 / interlaced=0 / bluray_compat=0 / constrained_intra=0 / bframes=13 / b_pyramid=2 / b_adapt=1 / b_bias=0 / direct=3 / weightb=1 / open_gop=0 / weightp=2 / keyint=240 / keyint_min=24 / scenecut=40 / intra_refresh=0 / rc=2pass / mbtree=0 / bitrate=1634 / ratetol=1.0 / qcomp=0.60 / qpmin=10 / qpmax=51 / qpstep=4 / cplxblur=20.0 / qblur=0.5 / ip_ratio=1.40 / pb_ratio=1.30 / aq=1:1.00
Default : Да
Forced : Нет

Аудио
Идентификатор : 2
Формат : AC-3
Формат/Информация : Audio Coding 3
Расширение режима : CM (complete main)
Идентификатор кодека : A_AC3
Продолжительность : 1 ч. 53 м.
Вид битрейта : Постоянный
Битрейт : 192 Кбит/сек
Каналы : 2 канала
Расположение каналов : Front: L R
Частота : 48,0 КГц
Битовая глубина : 16 бит
Метод сжатия : С потерями
Размер потока : 156 Мбайт (11%)
Заголовок : Многоголосый закадровый (Союз Видео)
Default : Да
Forced : Нет



Скачать Высокие.каблуки.Tacones.lejanos.(Педро.Альмодовар).[1991.драма.мелодрама.комедия.BDRip-AVC].[MVO].torrent без регистрации
Золото ЗОЛОТАЯ РАЗДАЧА! СКАЧАННОЕ НЕ ЗАСЧИТЫВАЕТСЯ! Золото
Дата: Зарегистрирован   [ Тип: внутренний ] Как тут cкачать?
MAGNET ссылка
MAGNET ссылка


Скачать .torrent

15 KB

Статус: проверено DHT
Скачан: торрент - 131 раз, раздача полностью - 7 раз
Размер: 1,45 GB
Оценка:  - (Голосов: 0)
Поблагодарили: 0
Поделиться ссылкой на эту раздачу с друзьями:
В контактеFacebookОдноклассникиTwitterLivejournalМой МирLiveinternet
 

 
Показать сообщения:    


Вы не можете начинать темы
Вы не можете отвечать на сообщения
Вы не можете редактировать свои сообщения
Вы не можете удалять свои сообщения
Вы не можете голосовать в опросах
Вы не можете прикреплять файлы к сообщениям
Вы можете скачивать файлы