Loading...
Error

Скачать Выкуп / Ransom (Рон Ховард / Ron Howard) [1996, триллер, криминал, BDRip-AVC] 3x[MVO] (Киномания, Россия, ТНТ) + 3x[AVO] (Гаврилов, Живов, Визгунов) + [Sub] (Rus, Eng) + [Original Eng] торрент без регистрации

 
Статистика раздачи
Размер:  5,08 GB   |    Скачан:  134 раза
Сидов:  1  [  0 KB/s  ]  
 
Автор Сообщение

leon030982

[] 

Выкуп / Ransom

Страна: США
Жанр: триллер, криминал
Год выпуска: 1996
Продолжительность: 02:01:28
Режиссер: Рон Ховард / Ron Howard
Сценарий: Ричард Прайс, Александр Иньон, Сирил Хьюм
Продюсер: Брайан Грейзер, Кип Хагопиан, Тодд Халлоуэлл
Оператор: Пётр Собочиньский
Композитор: Билли Корган, Джеймс Хорнер, Джим Лэнг
Художник: Майкл Коренблит, Джон Касарда, Рита Райек
Монтаж: Дэниэл П. Хэнли, Майк Хилл

В ролях: Мэл Гибсон, Рене Руссо, Броли Нолти, Гэри Синиз, Делрой Линдо, Лили Тейлор, Лив Шрайбер, Донни Уолберг, Эван Хэндлер, Нэнси Тикотин
Описание: У преуспевающего владельца авиакомпании похищают сына и требуют выкуп в 2 миллиона долларов. Гибсон по настоянию жены сообщает о похищении в ФБР, и зритель видит детально выписанную работу специалистов в контакте с отцом.
Выясняется, что в прошлом у Гибсона было черное пятно - он дал в свое время взятку и избежал тюрьмы, куда попал другой человек. Фильм имеет довольно неожиданную развязку.


бюджет $80 000 000
сборы в США $136 492 681
сборы в мире + $173 000 000 = $309 492 681

Качество видео: BDRip-AVC источник AVC ~26 MBit/s
Формат видео: MKV
Видео: AVC (x264) 1104x596@23.976 fps ~3 677 kBit/s 1.85:1
Аудио 1: MVO Киномания ac3 448 kBit/s 5.1 DD 48 kHz
Аудио 2: MVO ТК Россия ac3 192 kBit/s 2.0 DD 48 kHz
Аудио 3: AVO Гаврилов ac3 384 kBit/s 5.1 DD 48 kHz
Аудио 4: English ac3 448 kBit/s 5.1 DD 48 kHz
_____________________________________отдельно_____________________________________
Аудио 2: MVO ТНТ ac3 192 kBit/s 2.0 DD 48 kHz
Аудио 3: AVO Живов ac3 448 kBit/s 5.1 DD 48 kHz
Аудио 2: AVO Визгунов ac3 192 kBit/s 2.0 DD 48 kHz
Формат субтитров: softsub (SRT)

Перевод 1: Профессиональный (многоголосый закадровый) Киномания
Перевод 2: Профессиональный (многоголосый закадровый) ТК Россия
Перевод 3: Профессиональный (многоголосый закадровый) ТНТ
Перевод 4: Авторский (одноголосый закадровый) Гаврилов
Перевод 5: Авторский (одноголосый закадровый) Живов
Перевод 6: Авторский (одноголосый закадровый) Визгунов
Cубтитры: русские, английские
Оригинальная аудиодорожка: английский
Производство картины было прервано на несколько дней, когда Мэлу Гибсону удаляли аппендицит.
Музыка, написанная к фильму Говардом Шором, не понравилась режиссеру Рону Ховарду, и он в итоге заменил Шора композитором Джеймсом Хорнером.
Сценарист Ричард Прайс сыграл роль детектива.
Имя Джон Смит было предложено в качестве псевдонима. в 1995 году Мэл Гибсон озвучивал героя по имени Джон Смит в диснеевском мультфильме «Покахонтас».

x264vfw [info]: using SAR=1/1
x264vfw [info]: using cpu capabilities: MMX2 SSE2Fast SSSE3 FastShuffle SSE4.1 Cache64
x264vfw [info]: profile High, level 4.1
x264vfw [info]: frame I:730 Avg QP:15.18 size: 84664
x264vfw [info]: frame P:18021 Avg QP:17.71 size: 35736
x264vfw [info]: frame B:67687 Avg QP:19.40 size: 14050
x264vfw [info]: consecutive B-frames: 1.8% 2.4% 7.8% 15.6% 15.5% 45.3% 6.0% 3.1% 2.4%
x264vfw [info]: mb I I16..4: 2.1% 85.0% 12.9%
x264vfw [info]: mb P I16..4: 1.1% 18.6% 1.9% P16..4: 38.4% 25.8% 12.8% 0.6% 0.1% skip: 0.7%
x264vfw [info]: mb B I16..4: 0.1% 1.4% 0.2% B16..8: 44.6% 15.1% 3.5% direct:10.0% skip:25.1% L0:48.0% L1:42.3% BI: 9.7%
x264vfw [info]: 8x8 transform intra:85.5% inter:63.9%
x264vfw [info]: direct mvs spatial:99.4% temporal:0.6%
x264vfw [info]: coded y,uvDC,uvAC intra: 91.2% 94.4% 83.4% inter: 37.8% 43.3% 19.4%
x264vfw [info]: i16 v,h,dc,p: 30% 12% 9% 48%
x264vfw [info]: i8 v,h,dc,ddl,ddr,vr,hd,vl,hu: 13% 8% 7% 9% 13% 13% 12% 12% 12%
x264vfw [info]: i4 v,h,dc,ddl,ddr,vr,hd,vl,hu: 26% 7% 3% 8% 12% 13% 11% 10% 10%
x264vfw [info]: i8c dc,h,v,p: 51% 18% 16% 15%
x264vfw [info]: Weighted P-Frames: Y:12.9% UV:7.8%
x264vfw [info]: ref P L0: 38.9% 8.0% 20.4% 7.4% 6.8% 4.3% 4.3% 2.2% 2.3% 1.7% 1.8% 1.4% 0.3% 0.0%
x264vfw [info]: ref B L0: 63.2% 14.7% 7.3% 4.2% 2.9% 2.6% 1.9% 1.3% 1.0% 0.7% 0.3%
x264vfw [info]: ref B L1: 91.1% 8.9%
x264vfw [info]: kb/s:3676.56
General
Unique ID : 242008327012787493551613221529235181211 (0xB6111BBEB17AFE3DB9F8997EF00B4E9B)
Complete name : F:\FILMS\___ - R - ___\Ransom\Ransom.mkv
Format : Matroska
Format version : Version 2
File size : 4.37 GiB
Duration : 2h 1mn
Overall bit rate : 5 145 Kbps
Encoded date : UTC 2012-07-03 16:06:19
Writing application : mkvmerge v5.6.0 ('Kenya Kane') built on May 27 2012 16:44:04
Writing library : libebml v1.2.3 + libmatroska v1.3.0
Video
ID : 1
Format : AVC
Format/Info : Advanced Video Codec
Format profile : High@L4.1
Format settings, CABAC : Yes
Format settings, ReFrames : 12 frames
Codec ID : V_MPEG4/ISO/AVC
Duration : 2h 1mn
Bit rate : 3 677 Kbps
Width : 1 104 pixels
Height : 596 pixels
Display aspect ratio : 1.85:1
Frame rate : 23.976 fps
Color space : YUV
Chroma subsampling : 4:2:0
Bit depth : 8 bits
Scan type : Progressive
Bits/(Pixel*Frame) : 0.233
Stream size : 3.03 GiB (69%)
Title : AVC (x264) 1104x596@23.976 fps ~3 677 kBit/s 1.85:1 2-pass High 4.1
Writing library : x264 core 122 r2184bm 5c85e0a
Encoding settings : cabac=1 / ref=12 / deblock=1:-1:-1 / analyse=0x3:0x133 / me=umh / subme=10 / psy=1 / psy_rd=1.10:0.05 / mixed_ref=1 / me_range=32 / chroma_me=1 / trellis=2 / 8x8dct=1 / cqm=0 / deadzone=21,11 / fast_pskip=0 / chroma_qp_offset=-3 / threads=6 / sliced_threads=0 / nr=0 / decimate=0 / interlaced=0 / bluray_compat=0 / constrained_intra=0 / bframes=8 / b_pyramid=2 / b_adapt=2 / b_bias=0 / direct=3 / weightb=1 / open_gop=0 / weightp=2 / keyint=250 / keyint_min=23 / scenecut=40 / intra_refresh=0 / rc=2pass / mbtree=0 / bitrate=3677 / ratetol=1.0 / qcomp=0.90 / qpmin=0 / qpmax=69 / qpstep=4 / cplxblur=20.0 / qblur=0.5 / ip_ratio=1.40 / pb_ratio=1.30 / aq=2:1.15
Language : English
Default : Yes
Forced : No
Audio #1
ID : 2
Format : AC-3
Format/Info : Audio Coding 3
Mode extension : CM (complete main)
Format settings, Endianness : Big
Codec ID : A_AC3
Duration : 2h 1mn
Bit rate mode : Constant
Bit rate : 448 Kbps
Channel(s) : 6 channels
Channel positions : Front: L C R, Side: L R, LFE
Sampling rate : 48.0 KHz
Bit depth : 16 bits
Compression mode : Lossy
Stream size : 390 MiB (9%)
Title : MVO Киномания ac3 448 kBit/s 5.1 DD 48 kHz
Language : Russian
Default : Yes
Forced : No
Audio #2
ID : 3
Format : AC-3
Format/Info : Audio Coding 3
Mode extension : CM (complete main)
Format settings, Endianness : Big
Codec ID : A_AC3
Duration : 2h 1mn
Bit rate mode : Constant
Bit rate : 192 Kbps
Channel(s) : 2 channels
Channel positions : Front: L R
Sampling rate : 48.0 KHz
Bit depth : 16 bits
Compression mode : Lossy
Stream size : 167 MiB (4%)
Title : MVO ТК Россия ac3 192 kBit/s 2.0 DD 48 kHz
Language : Russian
Default : No
Forced : No
Audio #3
ID : 4
Format : AC-3
Format/Info : Audio Coding 3
Mode extension : CM (complete main)
Format settings, Endianness : Big
Codec ID : A_AC3
Duration : 2h 1mn
Bit rate mode : Constant
Bit rate : 384 Kbps
Channel(s) : 6 channels
Channel positions : Front: L C R, Side: L R, LFE
Sampling rate : 48.0 KHz
Bit depth : 16 bits
Compression mode : Lossy
Stream size : 334 MiB (7%)
Title : AVO Гаврилов ac3 384 kBit/s 5.1 DD 48 kHz
Language : Russian
Default : No
Forced : No
Audio #4
ID : 5
Format : AC-3
Format/Info : Audio Coding 3
Mode extension : CM (complete main)
Format settings, Endianness : Big
Codec ID : A_AC3
Duration : 2h 1mn
Bit rate mode : Constant
Bit rate : 448 Kbps
Channel(s) : 6 channels
Channel positions : Front: L C R, Side: L R, LFE
Sampling rate : 48.0 KHz
Bit depth : 16 bits
Compression mode : Lossy
Stream size : 390 MiB (9%)
Title : English ac3 448 kBit/s 5.1 DD 48 kHz
Language : English
Default : No
Forced : No
Text #1
ID : 6
Format : UTF-8
Codec ID : S_TEXT/UTF8
Codec ID/Info : UTF-8 Plain Text
Language : Russian
Default : Yes
Forced : No
Text #2
ID : 7
Format : UTF-8
Codec ID : S_TEXT/UTF8
Codec ID/Info : UTF-8 Plain Text
Language : English
Default : No
Forced : No



Скачать Выкуп.Ransom.(Рон.Ховард.Ron.Howard).[1996.триллер.криминал.BDRip-AVC].3x[MVO].(Киномания.Россия.ТНТ).+.3x[AVO].(Гаврилов.Живов.Визгунов).+.[Sub].(Rus.Eng).+.[Original.Eng].torrent без регистрации
Золото ЗОЛОТАЯ РАЗДАЧА! СКАЧАННОЕ НЕ ЗАСЧИТЫВАЕТСЯ! Золото
Дата: Зарегистрирован   [ Тип: внутренний ] Как тут cкачать?
MAGNET ссылка
MAGNET ссылка


Скачать .torrent

14 KB

Статус: проверено DHT
Скачан: торрент - 134 раз, раздача полностью - 9 раз
Размер: 5,08 GB
Оценка:  - (Голосов: 0)
Поблагодарили: 2
Поделиться ссылкой на эту раздачу с друзьями:
В контактеFacebookОдноклассникиTwitterLivejournalМой МирLiveinternet
 

 
Показать сообщения:    


Вы не можете начинать темы
Вы не можете отвечать на сообщения
Вы не можете редактировать свои сообщения
Вы не можете удалять свои сообщения
Вы не можете голосовать в опросах
Вы не можете прикреплять файлы к сообщениям
Вы можете скачивать файлы