Loading...
Error

Скачать Под предварительным следствием / Garde à vue (Клод Миллер / Claude Miller) [1981, триллер, драма, криминал, DVDRip] [MVO] + [Original] (Fr) торрент без регистрации

 
Статистика раздачи
Размер:  1,1 GB   |    Скачан:  136 раз
Сидов:  1  [  0 KB/s  ]  
 
Автор Сообщение

leon030982

[] 

Под предварительным следствием / Garde à vue
Страна: Франция
Студия: TF1
Жанр: триллер, драма, криминал
Год выпуска: 1981
Продолжительность: 1:23:49
Перевод: Профессиональный (многоголосый закадровый) - Неоклассика
Cубтитры: нет
Оригинальная аудиодорожка: французский

Режиссер: Клод Миллер / Claude Miller

В ролях: Лино Вентура, Мишель Серро, Роми Шнайдер, Ги Маршан, Жан-Клод Пеншена, Пьер Магелон, Мишель Сюш, Эльза Лунгини, Анн Миллер, Матьё Шиффман

Описание: «Под предварительным следствием» (также известен под названием «Инквизитор») — французский фильм, получивший премию Сезар. Экранизация английского романа Brainwash (англ. «Промывка мозгов») Джона Уэйнрайта.
Не рекомендуется детям до 16 лет.
Сюжет: Инспектор полиции Антуан Гальен, расследует убийство двух детей. Он вызывает нотариуса Жерома Мартино в качестве свидетеля по этому делу. Но на допросе выясняется, что Мартино подозревают в убийстве…

Доп. информация: В 2000г. вышел американо-французский ремейк «Под подозрением» (Under Suspicion), в главных ролях - Джин Хэкмен, Моника Беллуччи, Морган Фримен.

Качество видео: DVDRip
Формат видео: AVI
Видео: XviD, 720x432, 25fps, 1871 kb/s
Аудио #1: Russian AC3 2ch 48kHz 192Kbps | MVO Неоклассика
Аудио #2: French AC3 2ch 48kHz 192Kbps | Original
General
Complete name : ~/Видео/Garde a vue [DVDRip] [xvid] [720x432] [ru-fr ac3].avi
Format : AVI
Format/Info : Audio Video Interleave
File size : 1.10 GiB
Duration : 1h 23mn
Overall bit rate : 1 872 Kbps
Writing application : ogmrip-0.13.6
Video
ID : 0
Format : MPEG-4 Visual
Format profile : Advanced Simple@L5
Format settings, BVOP : 2
Format settings, QPel : No
Format settings, GMC : No warppoints
Format settings, Matrix : Default (MPEG)
Codec ID : XVID
Codec ID/Hint : XviD
Duration : 1h 23mn
Bit rate : 1 471 Kbps
Width : 720 pixels
Height : 432 pixels
Display aspect ratio : 16:9
Frame rate : 25.000 fps
Color space : YUV
Chroma subsampling : 4:2:0
Bit depth : 8 bits
Scan type : Progressive
Compression mode : Lossy
Bits/(Pixel*Frame) : 0.189
Stream size : 882 MiB (79%)
Writing library : XviD 64
Audio #1
ID : 1
Format : AC-3
Format/Info : Audio Coding 3
Mode extension : CM (complete main)
Codec ID : 2000
Duration : 1h 23mn
Bit rate mode : Constant
Bit rate : 192 Kbps
Channel(s) : 2 channels
Channel positions : Front: L R
Sampling rate : 48.0 KHz
Bit depth : 16 bits
Compression mode : Lossy
Stream size : 115 MiB (10%)
Alignment : Aligned on interleaves
Interleave, duration : 32 ms (0.80 video frame)
Audio #2
ID : 2
Format : AC-3
Format/Info : Audio Coding 3
Mode extension : CM (complete main)
Codec ID : 2000
Duration : 1h 23mn
Bit rate mode : Constant
Bit rate : 192 Kbps
Channel(s) : 2 channels
Channel positions : Front: L R
Sampling rate : 48.0 KHz
Bit depth : 16 bits
Compression mode : Lossy
Stream size : 115 MiB (10%)
Alignment : Aligned on interleaves
Interleave, duration : 32 ms (0.80 video frame)



Скачать Под.предварительным.следствием.Garde.à.vue.(Клод.Миллер.Claude.Miller).[1981.триллер.драма.криминал.DVDRip].[MVO].+.[Original].(Fr).torrent без регистрации
Золото ЗОЛОТАЯ РАЗДАЧА! СКАЧАННОЕ НЕ ЗАСЧИТЫВАЕТСЯ! Золото
Дата: Зарегистрирован   [ Тип: внутренний ] Как тут cкачать?
MAGNET ссылка
MAGNET ссылка


Скачать .torrent

22 KB

Статус: проверено DHT
Скачан: торрент - 136 раз, раздача полностью - 27 раз
Размер: 1,1 GB
Оценка:  - (Голосов: 0)
Поблагодарили: 0
Поделиться ссылкой на эту раздачу с друзьями:
В контактеFacebookОдноклассникиTwitterLivejournalМой МирLiveinternet
 

 
Показать сообщения:    


Вы не можете начинать темы
Вы не можете отвечать на сообщения
Вы не можете редактировать свои сообщения
Вы не можете удалять свои сообщения
Вы не можете голосовать в опросах
Вы не можете прикреплять файлы к сообщениям
Вы можете скачивать файлы