Loading...
Error

Скачать Послание из гроба / Линч / Lynch (Сезон 01, серии 01-13 из 13) (Felipe Martќnez, Riccardo Gabrielli R) [2012, драма, криминал, комедия, HDRip] [MVO] [Victory films & ViruseProjec] торрент без регистрации

 
Статистика раздачи
Размер:  6,97 GB   |    Скачан:  159 раз
Сидов:  1  [  0 KB/s  ]  
 
Автор Сообщение

leon030982

[] 

Послание из гроба / Линч / Lynch


Год выпуска: 2012
Страна: Колумбия
Жанр: драма, криминал, комедия
Продолжительность: ~00:55:00
Перевод: Любительский многоголосый закадровый (Victory films & ViruseProjec)
Русские субтитры: нет
Режиссёр: Felipe Martќnez, Riccardo Gabrielli R., Jonathan Jakubowicz, Diego Mejia Montes, Lilo Vila

В ролях: Наталия Орейро, Хорхе Перугоррия, Алехандро Кальва, Татан Рамирез, Марсела Карвахаль, Хорхе Монтерросо, Паула Кастаньо, Кристиан Мейер, Хуан Баптиста и др.

Описание: Есть люди, которым нужны деньги; люди, которым нужна любовь; люди, которым нужно признание... а есть люди, которым нужно УМЕРЕТЬ.
Так что если у вас настоящие проблемы и единственное решение это покончить с жизнью, похоронное агентство "Послание из гроба" предлагает вам полный сервис воскрешения: Инсценирование случайной или естественной смерти, соответствующие вам похороны, видео вашего погребения и новая личность в другой стране, что позволит вам наслаждаться жизнью, как настоящий мертвец.
Никто не будет вас искать, никто о вас не спросит, не будет больше обязательств... по крайней мере, не тех, что вы приобрели в этой жизни. Вы сможете начать все заново, так же, как это сделала Исабель, которая после 14 лет отсутствия, в один прекрасный день вернулась в похоронное агентство напуганная, с полным чемоданом денег и необходимостью обмануть своих преследователей, разыграв собственную смерть.
Исабель бросила Линча, владельца похоронного агентства, когда Лео, их общий сын, был еще малышом. Она ушла бесследно, навсегда изменив жизнь этих двух человек.
И теперь она появляется в агентстве, раненная и испуганная, прося Линча, чтобы он спас ее..



Релиз: &

Озвучка:
*Андрей Питерский
*Камила Юнусова
*Евгений Киселев
*Алла Блаер

Перевод: Виктория IVK
Сведение звука: Андрей Питерский

скачать СЕМПЛ с multi-up

Качество: HDRip
Формат: AVI
Видео кодек: XviD
Аудио кодек: MP3
Видео: 704x400 (1.76:1), 29.970 fps, XviD build 50 ~1194 kbps avg, 0.14 bit/pixel
Аудио: 44.100 kHz, MPEG Layer 3, 2 ch, ~192.00 kbps avg

D:ОЗВУЧКАГОТОВОЕВИКТОРИ ФИЛЬМСLynch.S01Lynch_S01.E01_Victory Films & ViruseProject.avi
General
Complete name : D:ОЗВУЧКАГОТОВОЕВИКТОРИ ФИЛЬМСLynch.S01Lynch_S01.E01_Victory Films & ViruseProject.avi
Format : AVI
Format/Info : Audio Video Interleave
File size : 533 MiB
Duration : 53mn 18s
Overall bit rate : 1 398 Kbps
Writing application : VirtualDubMod 1.5.10.2 (build 2540/release)
Writing library : VirtualDubMod build 2540/release
Video #0
ID : 0
Format : MPEG-4 Visual
Format profile : Advanced Simple@L5
Format settings, BVOP : 2
Format settings, QPel : No
Format settings, GMC : No warppoints
Format settings, Matrix : Default (H.263)
Codec ID : XVID
Codec ID/Hint : XviD
Duration : 53mn 18s
Bit rate : 1 194 Kbps
Width : 704 pixels
Height : 400 pixels
Display aspect ratio : 16:9
Frame rate : 29.970 fps
Color space : YUV
Chroma subsampling : 4:2:0
Bit depth : 8 bits
Scan type : Progressive
Compression mode : Lossy
Bits/(Pixel*Frame) : 0.141
Stream size : 455 MiB (85%)
Writing library : XviD 1.2.1 (UTC 2008-12-04)
Audio #1
ID : 1
Format : MPEG Audio
Format version : Version 1
Format profile : Layer 3
Mode : Joint stereo
Codec ID : 55
Codec ID/Hint : MP3
Duration : 53mn 18s
Bit rate mode : Constant
Bit rate : 192 Kbps
Channel(s) : 2 channels
Sampling rate : 44.1 KHz
Compression mode : Lossy
Stream size : 73.2 MiB (14%)
Alignment : Split accross interleaves
Interleave, duration : 33 ms (1.00 video frame)
Interleave, preload duration : 500 ms

ВНИМАНИЕ!!! 27.12.12 добавлена финальная 13-я серия



Скачать Послание.из.гроба.Линч.Lynch.(Сезон.01.серии.01-13.из.13).(Felipe.Martќnez.Riccardo.Gabrielli.R).[2012.драма.криминал.комедия.HDRip].[MVO].[Victory.films.&.ViruseProjec].torrent без регистрации
Золото ЗОЛОТАЯ РАЗДАЧА! СКАЧАННОЕ НЕ ЗАСЧИТЫВАЕТСЯ! Золото
Дата: Зарегистрирован   [ Тип: внутренний ] Как тут cкачать?
MAGNET ссылка
MAGNET ссылка


Скачать .torrent

36 KB

Статус: проверено DHT
Скачан: торрент - 159 раз, раздача полностью - 13 раз
Размер: 6,97 GB
Оценка:  5 (Голосов: 2)
Поблагодарили: 3
Поделиться ссылкой на эту раздачу с друзьями:
В контактеFacebookОдноклассникиTwitterLivejournalМой МирLiveinternet
 

 
Показать сообщения:    


Вы не можете начинать темы
Вы не можете отвечать на сообщения
Вы не можете редактировать свои сообщения
Вы не можете удалять свои сообщения
Вы не можете голосовать в опросах
Вы не можете прикреплять файлы к сообщениям
Вы можете скачивать файлы