Loading...
Error

Скачать Цвет денег / The Color of Money (Мартин Скорсезе) [1986, драма, спорт, BDRip-AVC] [MVO]+[Оригинал] торрент без регистрации

 
Статистика раздачи
Размер:  2,17 GB   |    Скачан:  132 раза
Сидов:  1  [  0 KB/s  ]  
 
Автор Сообщение

Marsianka

[] 

Цвет денег / The Color of Money (1986) BDRip-AVC от PowerTracker

Жанр: драма, спорт
Страна: США
Режиссер: Мартин Скорсезе
В ролях: Пол Ньюман, Том Круз, Мэри Элизабет Мастрантонио, Хелен Шейвер, Джон Туртурро, Билл Коббс, Robert Agins, Элвин Анастасия, Randall Arney, Элизабет Бракко

Сюжет фильма: Быстрому Эдди, виртуозному игроку в бильярд, нет равных за зеленым столом. Для других это развлечение, для него серьезная работа и большие деньги. У него появляется конкурент, новичок Винц, у которого есть все, что нужно для победы: талант, везение и поддержка обворожительной подруги, но ему не хватает почерка мастера. Эдди становится его наставником и учит восходящую звезду тонкостям большой игры. На зеленом сукне, цвета денег, один на один с судьбой

Мировая премьера: 8 октября 1986



Продолжительность: 01:59:39
Качество видео: BDRip-AVC
Видео: кодек: x264, размер кадра: 1024x556, битрейт: 2027 кб/с, bit/pixel: 0.148
Аудио #1: язык: Русский , перевод: дублированный (дубляж), кодек: AC3 2.0, битрейт: 192.00 кб/с
Аудио #2: язык: Украинский , перевод: профессиональный многоголосый закадровый, кодек: AC3 2.0, битрейт: 192.00 кб/с
Аудио #3: язык: Английский , перевод: оригинал, кодек: AC3 2.0, битрейт: 192.00 кб/с

&
Общее
Уникальный идентификатор : 173878178117584360568440461968211688590 (0x82CFB80FCEEBE246BCEAD399D733BC8E)
Полное имя : D:The Color of Money.1986.BDRip-AVC.mkv
Формат : Matroska
Версия формата : Version 2
Размер файла : 2,17 Гбайт
Продолжительность : 1 ч. 59 м.
Общий поток : 2602 Кбит/сек
Название фильма : Цвет денег / The Color of Money (1986) BDRip-AVC rip by rulya74
Дата кодирования : UTC 2012-07-04 19:56:32
Программа кодирования : mkvmerge v5.6.0 ('Kenya Kane') built on May 27 2012 16:44:04
Библиотека кодирования : libebml v1.2.3 + libmatroska v1.3.0

Видео
Идентификатор : 1
Формат : AVC
Формат/Информация : Advanced Video Codec
Профиль формата : High@L4.1
Параметр CABAC формата : Да
Параметр ReFrames формата : 11 кадров
Идентификатор кодека : V_MPEG4/ISO/AVC
Продолжительность : 1 ч. 59 м.
Битрейт : 2027 Кбит/сек
Ширина : 1024 пикселя
Высота : 556 пикселей
Соотношение сторон : 16:9
Частота кадров : 23,976 кадра/сек
Цветовое пространство : YUV
Субдискретизация насыщенности : 4:2:0
Битовая глубина : 8 бит
Тип развёртки : Прогрессивная
Бит/(Пиксели*Кадры) : 0.148
Размер потока : 1,65 Гбайт (76%)
Библиотека кодирования : x264 core 125 r2200 999b753
Настройки программы : cabac=1 / ref=11 / deblock=1:-3:-3 / analyse=0x3:0x113 / me=umh / subme=10 / psy=1 / psy_rd=1.00:0.00 / mixed_ref=1 / me_range=36 / chroma_me=1 / trellis=2 / 8x8dct=1 / cqm=0 / deadzone=21,11 / fast_pskip=1 / chroma_qp_offset=-2 / threads=16 / lookahead_threads=2 / sliced_threads=0 / nr=0 / decimate=1 / interlaced=0 / bluray_compat=0 / constrained_intra=0 / bframes=10 / b_pyramid=2 / b_adapt=1 / b_bias=0 / direct=3 / weightb=1 / open_gop=0 / weightp=2 / keyint=240 / keyint_min=23 / scenecut=40 / intra_refresh=0 / rc=2pass / mbtree=0 / bitrate=2027 / ratetol=1.0 / qcomp=0.60 / qpmin=10 / qpmax=51 / qpstep=4 / cplxblur=20.0 / qblur=0.5 / ip_ratio=1.40 / pb_ratio=1.30 / aq=1:1.00
Default : Да
Forced : Нет

Аудио #1
Идентификатор : 2
Формат : AC-3
Формат/Информация : Audio Coding 3
Расширение режима : CM (complete main)
Идентификатор кодека : A_AC3
Продолжительность : 1 ч. 59 м.
Вид битрейта : Постоянный
Битрейт : 192 Кбит/сек
Каналы : 2 канала
Расположение каналов : Front: L R
Частота : 48,0 КГц
Битовая глубина : 16 бит
Метод сжатия : С потерями
Размер потока : 164 Мбайт (7%)
Заголовок : Дубляж
Язык : Russian
Default : Да
Forced : Нет

Аудио #2
Идентификатор : 3
Формат : AC-3
Формат/Информация : Audio Coding 3
Расширение режима : CM (complete main)
Идентификатор кодека : A_AC3
Продолжительность : 1 ч. 59 м.
Вид битрейта : Постоянный
Битрейт : 192 Кбит/сек
Каналы : 2 канала
Расположение каналов : Front: L R
Частота : 48,0 КГц
Битовая глубина : 16 бит
Метод сжатия : С потерями
Размер потока : 164 Мбайт (7%)
Заголовок : Многоголосый закадровый
Язык : Ukrainian
Default : Нет
Forced : Нет

Аудио #3
Идентификатор : 4
Формат : AC-3
Формат/Информация : Audio Coding 3
Расширение режима : CM (complete main)
Идентификатор кодека : A_AC3
Продолжительность : 1 ч. 59 м.
Вид битрейта : Постоянный
Битрейт : 192 Кбит/сек
Каналы : 2 канала
Расположение каналов : Front: L R
Частота : 48,0 КГц
Битовая глубина : 16 бит
Метод сжатия : С потерями
Размер потока : 164 Мбайт (7%)
Заголовок : Оригинал
Язык : English
Default : Нет
Forced : Нет



Скачать Цвет.денег.The.Color.of.Money.(Мартин.Скорсезе).[1986.драма.спорт.BDRip-AVC].[MVO]+[Оригинал].torrent без регистрации
Золото ЗОЛОТАЯ РАЗДАЧА! СКАЧАННОЕ НЕ ЗАСЧИТЫВАЕТСЯ! Золото
Дата: Зарегистрирован   [ Тип: внутренний ] Как тут cкачать?
MAGNET ссылка
MAGNET ссылка


Скачать .torrent

11 KB

Статус: проверено DHT
Скачан: торрент - 132 раз, раздача полностью - 6 раз
Размер: 2,17 GB
Оценка:  5 (Голосов: 1)
Поблагодарили: 2
Поделиться ссылкой на эту раздачу с друзьями:
В контактеFacebookОдноклассникиTwitterLivejournalМой МирLiveinternet
 

 
Показать сообщения:    


Вы не можете начинать темы
Вы не можете отвечать на сообщения
Вы не можете редактировать свои сообщения
Вы не можете удалять свои сообщения
Вы не можете голосовать в опросах
Вы не можете прикреплять файлы к сообщениям
Вы можете скачивать файлы