Loading...
Error

Скачать Общее право / Common Law (Полный 1-ый сезон) (Мэл Дэмски, Аарон Липстадт, Ларри Тенг) [2012, Детектив, HDTVRip] [Original] + [Rus Sub] (Нотабеноид) торрент без регистрации

 
Статистика раздачи
Размер:  4,2 GB   |    Скачан:  168 раз
Сидов:  1  [  0 KB/s  ]  
 
Автор Сообщение

leon030982

[] 

Общее право / Common Law
Год выпуска: 2012
Страна: США
Жанр: Детектив
Продолжительность: 44 мин
Перевод: Русские субтитры
Русские субтитры: есть
Автор перевода: Нотабеноид координатор Podruga

Режиссёр: Мэл Дэмски, Аарон Липстадт, Ларри Тенг

В ролях: Лайл Брокато, Ванесса Клоук, Майкл Или, Гэри Граббс, Индиго, Уоррен Коул, Джек МакГи, Соня Уолгер

Описание: Проект рассказывает о двух копах — Уэсе Митчелле и Трэвисе Марксе — для которых проблемой являются они сами. Будучи напарниками они были командой мечты департамента Лос-Анджелеса. Сейчас Уэс и Трэвис не могут терпеть друг друга. Чтобы оживить ослабевающие профессиональные отношения, капитан отправляет их на курс терапии для пар. Однако зачастую залог хороших отношений не в любви к одним и тем же вещам — вы просто должны ненавидеть одно и тоже.


Сэмпл: http://multi-up.com/724671
Качество: HDTVRip
Формат: AVI
Видео кодек: XviD
Аудио кодек: MP3
Видео: XVID, 624x352, 23,976fps, 1000kbps, 0.190bit/pixel
Аудио: MPEG Audio Layer 3, 44100Hz, 2ch, 128Kbps
Общее
Полное имя : E:\Common Law 1 сезон\Common.Law.S01E01.avi
Формат : AVI
Формат/Информация : Audio Video Interleave
Размер файла : 560 Мбайт
Продолжительность : 1 ч. 8 м.
Общий поток : 1140 Кбит/сек
Видео
Идентификатор : 1
Формат : MPEG-4 Visual
Профиль формата : Simple@L0
Параметр BVOP формата : Нет
Параметр QPel формата : Нет
Параметр GMC формата : Без точки перехода
Параметр матрицы формата : Default (H.263)
Идентификатор кодека : XVID
Идентификатор кодека/Подсказка : XviD
Продолжительность : 1 ч. 8 м.
Битрейт : 1000 Кбит/сек
Ширина : 624 пикселя
Высота : 352 пикселя
Соотношение сторон : 16:9
Частота кадров : 23,976 кадра/сек
Цветовое пространство : YUV
Субдискретизация насыщенности : 4:2:0
Битовая глубина : 8 бит
Тип развёртки : Прогрессивная
Метод сжатия : С потерями
Бит/(Пиксели*Кадры) : 0.190
Размер потока : 491 Мбайт (88%)
Аудио
Идентификатор : 0
Формат : MPEG Audio
Версия формата : Version 1
Профиль формата : Layer 3
Режим : Joint stereo
Расширение режима : MS Stereo
Идентификатор кодека : 55
Идентификатор кодека/Подсказка : MP3
Продолжительность : 1 ч. 8 м.
Вид битрейта : Постоянный
Битрейт : 128 Кбит/сек
Каналы : 2 канала
Частота : 44,1 КГц
Метод сжатия : С потерями
Размер потока : 62,9 Мбайт (11%)
Выравнивание : Разделение по промежуткам
Продолжительность промежутка : 42 мс. (1,00 видеокадр)
Перевод доступен благодаря пользователям сайта Нотабеноида, а также координатору перевода Podruga
Внимание! Раздача ведётся путём добавления новых серий; при каждом добавлении создётся новый торрент. Чтобы начать докачку новой серии, пользователям необходимо сделать следующее:
(1) остановить скачивание,
(2) удалить старый торрент у себя из клиента (старые серии удалять не надо),
(3) скачать новый торрент и запустить его у себя в клиенте вместо старого, при этом указать клиенту путь в старую папку куда и должно происходить скачивание новых серий.
Ваш клиент при этом должен произвести хеширование (проверку) старой папки (если не производит сам - помогите ему сделать это), и будет докачивать только те серии которых у вас ещё нет. Старые серии при этом не удаляются, а продолжают раздаваться!
Eсли вы уже удалили старые серии, то предотвратить повторную закачку старых серий можно, отжав галочку в соответсвующих местах при запуске нового торрента. По возможности, желательно не удалять старые серии как можно дольше чтобы релизёр не столько продолжал раздавать старые серии, а смог сконцентрироваться на новых.
01x01 - Pilot
01x02 - Ride-Along
01x03 - Soul Mates
01x04 - Ex Factor
01x05 - The T Word
01x06 - Performance Anxiety
01x07 - Role Play
28.09.2012 Добавлена 9-12-я серии, просьба перекачать торрент.Сезон завершен



Скачать Общее.право.Common.Law.(Полный.1-ый.сезон).(Мэл.Дэмски.Аарон.Липстадт.Ларри.Тенг).[2012.Детектив.HDTVRip].[Original].+.[Rus.Sub].(Нотабеноид).torrent без регистрации
Золото ЗОЛОТАЯ РАЗДАЧА! СКАЧАННОЕ НЕ ЗАСЧИТЫВАЕТСЯ! Золото
Дата: Зарегистрирован   [ Тип: внутренний ] Как тут cкачать?
MAGNET ссылка
MAGNET ссылка


Скачать .torrent

13 KB

Статус: проверено DHT
Скачан: торрент - 168 раз, раздача полностью - 4 раз
Размер: 4,2 GB
Оценка:  - (Голосов: 0)
Поблагодарили: 0
Поделиться ссылкой на эту раздачу с друзьями:
В контактеFacebookОдноклассникиTwitterLivejournalМой МирLiveinternet
 

 
Показать сообщения:    


Вы не можете начинать темы
Вы не можете отвечать на сообщения
Вы не можете редактировать свои сообщения
Вы не можете удалять свои сообщения
Вы не можете голосовать в опросах
Вы не можете прикреплять файлы к сообщениям
Вы можете скачивать файлы