Loading...
Error

Скачать У твоего порога / Right at Your Door (Крис Горак) [2006, Триллер, DVDRip] [DVO] торрент без регистрации

 
Статистика раздачи
Размер:  700 MB   |    Скачан:  101 раз
Сидов:  1  [  0 KB/s  ]  
 
Автор Сообщение

Marsianka

[] 

У твоего порога / Right at Your Door
Год выпуска: 2006
Страна: США
Жанр: Триллер
Продолжительность: 01:31:33
Перевод: Профессиональный (двухголосый)
Русские субтитры: нет
Режиссер: Крис Горак
В ролях: Мэри МакКормак, Рори Кокрейн, Тони Перес, Скотти Нойд, Макс Кэш, Джон Уэртас, Уилл МакКормак, Эмека, Марисоль Рамирес, Гектор Луис Бастаманте и др.

Описание: В Лос-Анджелесе раздаются взрывы, облако из ядовитых паров начинает распространяться по городу. Пока никто не знает, теракт ли это или несчастный случай, но последствия произошедшего ужасают Молодая семья оказывается разделенной в самомэпицентре катастрофы: жена в зоне поражения, а муж в относительной безопасности. Как ему кажется

Трейлер



Доп. информация:
Качество: DVDRip
Формат: AVI
Видео кодек: XviD
Аудио кодек: MP3
Видео: 544x304 (1.79:1), 25 fps, XviD MPEG-4 ~930 kbps avg, 0.23 bit/pixel
Аудио: 48 kHz, MPEG Layer 3, 2 ch, ~128.00 kbps avg

General
Complete name : u.tvoego.poroga.DVDRip.2006.avi
Format : AVI
Format/Info : Audio Video Interleave
File size : 700 MiB
Duration : 1h 31mn
Overall bit rate : 1 069 Kbps
Writing application : FairUse Wizard - http://fairusewizard.com
Writing library : The best and REALLY easy backup tool

Video
ID : 0
Format : MPEG-4 Visual
Format profile : Advanced Simple@L5
Format settings, BVOP : 1
Format settings, QPel : No
Format settings, GMC : No warppoints
Format settings, Matrix : Default (MPEG)
Muxing mode : Packed bitstream
Codec ID : XVID
Codec ID/Hint : XviD
Duration : 1h 31mn
Bit rate : 931 Kbps
Width : 544 pixels
Height : 304 pixels
Display aspect ratio : 16:9
Frame rate : 25.000 fps
Color space : YUV
Chroma subsampling : 4:2:0
Bit depth : 8 bits
Scan type : Progressive
Compression mode : Lossy
Bits/(Pixel*Frame) : 0.225
Stream size : 610 MiB (87%)
Writing library : XviD 1.2.0.dev47 (UTC 2006-11-01)

Audio
ID : 1
Format : MPEG Audio
Format version : Version 1
Format profile : Layer 3
Mode : Joint stereo
Mode extension : MS Stereo
Codec ID : 55
Codec ID/Hint : MP3
Duration : 1h 31mn
Bit rate mode : Constant
Bit rate : 128 Kbps
Channel(s) : 2 channels
Sampling rate : 48.0 KHz
Compression mode : Lossy
Stream size : 83.8 MiB (12%)
Alignment : Aligned on interleaves
Interleave, duration : 40 ms (1.00 video frame)
Interleave, preload duration : 504 ms
Writing library : LAME3.97b
Encoding settings : -m j -V 4 -q 2 -lowpass 17 -b 128



Скачать У.твоего.порога.Right.at.Your.Door.(Крис.Горак).[2006.Триллер.DVDRip].[DVO].torrent без регистрации
Золото ЗОЛОТАЯ РАЗДАЧА! СКАЧАННОЕ НЕ ЗАСЧИТЫВАЕТСЯ! Золото
Дата: Зарегистрирован   [ Тип: внутренний ] Как тут cкачать?
MAGNET ссылка
MAGNET ссылка


Скачать .torrent

14 KB

Статус: проверено DHT
Скачан: торрент - 101 раз, раздача полностью - 12 раз
Размер: 700 MB
Оценка:  - (Голосов: 0)
Поблагодарили: 1
Поделиться ссылкой на эту раздачу с друзьями:
В контактеFacebookОдноклассникиTwitterLivejournalМой МирLiveinternet
 

 
Показать сообщения:    


Вы не можете начинать темы
Вы не можете отвечать на сообщения
Вы не можете редактировать свои сообщения
Вы не можете удалять свои сообщения
Вы не можете голосовать в опросах
Вы не можете прикреплять файлы к сообщениям
Вы можете скачивать файлы