Loading...
Error

Скачать Приключения в Городе Динозавров / Adventures in Dinosaur City (Бретт Томпсон / Brett Thompson) [1992, фэнтези, приключения, VHSRip] [VO] торрент без регистрации

 
Статистика раздачи
Размер:  862 MB   |    Скачан:  188 раз
Сидов:  1  [  0 KB/s  ]  
 
Автор Сообщение

leon030982

[] 

Приключения в Городе Динозавров / Adventures in Dinosaur City

Страна: США
Жанр: фэнтези, приключения
Год выпуска: 1992
Перевод: Любительский (одноголосый)
Продолжительность: 01:24:48
Субтитры: нет
Режиссер: Бретт Томпсон / Brett Thompson
В ролях: Марк Марторана, Тони Дойл, Р.Э. Михайлофф, Дон Барнс, Омри Кац, Шоун Хоффман, Питер Кох, Тиффани Постон, Меган Хьюз, Мими Мэйнард
Описание: Легкая и веселая детская фантастика о приключениях подростков в необычном мире, где люди и динозавры (причем очеловеченные) живут рядом. Героям предстоит завести в этом мире новых друзей (а заодно и врагов) и, преодолев немало препятствий, отвратить угрозу, нависшую над Городом Динозавров. Простой сюжет, простой юмор, но зато красочный мир, яркие персонажи, искренняя дружба и «место для подвига» — а что еще нужно для приятного времяпрепровождения, если ты и сам ребенок или решил ненадолго вернуться в детство? Вперед, к приключениям!

Качество видео: VHSRip
Формат видео: AVI
Видео: XVID, H.263, 640х480 (4:3), 25,00fps, 1277kbps
Аудио: MP3, 44,1KHz, 128kbps, 2.0 (stereo)
Format: AVI
Format/Info: Audio Video Interleave
File size: 862 MiB
Duration: 1h 24mn
Overall bit rate: 1 422 Kbps
Format: MPEG-4 Visual
Format profile: Simple@L3
Format settings, BVOP: No
Format settings, QPel: No
Format settings, GMC: No warppoints
Format settings, Matrix: Default (H.263)
Codec ID: DX50
Codec ID/Hint: DivX 5
Duration: 1h 24mn
Bit rate: 1 277 Kbps
Width: 640 pixels
Height: 480 pixels
Display aspect ratio: 4:3
Frame rate: 25.000 fps
Color space: YUV
Chroma subsampling: 4:2:0
Bit depth: 8 bits
Scan type: Progressive
Compression mode: Lossy
Bits/(Pixel*Frame): 0.166
Stream size: 775 MiB (90%)
Writing library: XviD 1.2.1 (UTC 2008-12-04)
Format: MPEG Audio
Format version: Version 1
Format profile: Layer 3
Mode: Joint stereo
Mode extension: MS Stereo
Codec ID: 55
Codec ID/Hint: MP3
Duration: 1h 24mn
Bit rate mode: Constant
Bit rate: 128 Kbps
Channel(s): 2 channels
Sampling rate: 44.1 KHz
Compression mode: Lossy
Stream size: 77.6 MiB (9%)
Alignment: Aligned on interleaves
Interleave, duration: 26 ms (0.65 video frame)
Writing library: LAME3.98.2



Скачать Приключения.в.Городе.Динозавров.Adventures.in.Dinosaur.City.(Бретт.Томпсон.Brett.Thompson).[1992.фэнтези.приключения.VHSRip].[VO].torrent без регистрации
Золото ЗОЛОТАЯ РАЗДАЧА! СКАЧАННОЕ НЕ ЗАСЧИТЫВАЕТСЯ! Золото
Дата: Зарегистрирован   [ Тип: внутренний ] Как тут cкачать?
MAGNET ссылка
MAGNET ссылка


Скачать .torrent

17 KB

Статус: проверено DHT
Скачан: торрент - 188 раз, раздача полностью - 30 раз
Размер: 862 MB
Оценка:  - (Голосов: 0)
Поблагодарили: 0
Поделиться ссылкой на эту раздачу с друзьями:
В контактеFacebookОдноклассникиTwitterLivejournalМой МирLiveinternet
 

 
Показать сообщения:    


Вы не можете начинать темы
Вы не можете отвечать на сообщения
Вы не можете редактировать свои сообщения
Вы не можете удалять свои сообщения
Вы не можете голосовать в опросах
Вы не можете прикреплять файлы к сообщениям
Вы можете скачивать файлы