Loading...
Error

Скачать Лорд Дракон / Long xiao ye (Джеки Чан / Jackie Chan) [1981, боевик, комедия, спорт, DVDRip] [VO] торрент без регистрации

 
Статистика раздачи
Размер:  1,37 GB   |    Скачан:  165 раз

Полного источника не было: 20 минут

 
Автор Сообщение

leon030982

[] 

Лорд Дракон / Dragon Lord / Long xiao ye
Страна: Гонконг
Жанр: боевик, комедия, спорт
Год выпуска: 1981
Продолжительность: 01:31:58
Перевод: Одноголосый закадровый
Cубтитры: нет

Режиссер: Джеки Чан / Jackie Chan

В ролях: В ролях: Джеки Чан (Dragon), Уай-Ман Чан (Tiger), Пол Чанг (Cowboy's Father), Хонг-Йп Чэн (Ah Dee), Фанг Фенг (The Referee), Хак-Он Фанг (The Killer King), Kam-Kwong Ho (The Commentator), Gong Hoh (Referee), Pak-Kwong Ho (Spectator), Енг Му квон (The Hatchetman), Бенни Лай, Дже Лью

Описание: Лунгшан - сонный провинциальный городок на юге Китая. Ничего, кроме ветхого «культурного наследия» здесь нет. Два закадычных друга случайно становятся свидетелями криминальной разборки.
Сами того не желая, воспрепятствовав вывозу за границу ценнейших экземпляров Китайского искусства, друзья оказываются втянутыми в борьбу за сферы влияния.


MPAA: - Детям до 13 лет просмотр не желателен

Сэмпл: http://ifolder.ru/30433602
Качество видео: DVDRip
Формат видео: AVI
Видео: XviD; 720x304 (2.35:1); 1673 Kbps; 25 fps; 0,306 bpp
Аудио: AC3; 448 Kbps; CBR; 6 ch
General
Complete name : D:\TorrentDownloads\Downloads\Фильмы\Lord.Drakon.1982.Xvid.DVDRip.avi
Format : AVI
Format/Info : Audio Video Interleave
File size : 1.37 GiB
Duration : 1h 31mn
Overall bit rate : 2 131 Kbps
Writing application : VirtualDubMod 1.5.10.3 | www.virtualdub-fr.org || (build 2550/release)
Writing library : VirtualDubMod build 2550/release
Video
ID : 0
Format : MPEG-4 Visual
Format profile : Advanced Simple@L5
Format settings, BVOP : 2
Format settings, QPel : No
Format settings, GMC : No warppoints
Format settings, Matrix : Default (MPEG)
Codec ID : XVID
Codec ID/Hint : XviD
Duration : 1h 31mn
Bit rate : 1 674 Kbps
Width : 720 pixels
Height : 304 pixels
Display aspect ratio : 2.35:1
Frame rate : 25.000 fps
Color space : YUV
Chroma subsampling : 4:2:0
Bit depth : 8 bits
Scan type : Progressive
Compression mode : Lossy
Bits/(Pixel*Frame) : 0.306
Stream size : 1.08 GiB (79%)
Writing library : XviD 1.2.1 (UTC 2008-12-04)
Audio
ID : 1
Format : AC-3
Format/Info : Audio Coding 3
Mode extension : CM (complete main)
Codec ID : 2000
Duration : 1h 31mn
Bit rate mode : Constant
Bit rate : 448 Kbps
Channel(s) : 6 channels
Channel positions : Front: L C R, Side: L R, LFE
Sampling rate : 48.0 KHz
Bit depth : 16 bits
Compression mode : Lossy
Stream size : 295 MiB (21%)
Alignment : Split accross interleaves
Interleave, duration : 40 ms (1.00 video frame)
Interleave, preload duration : 500 ms
Во время падения с пирамиды из каскадеров Чан получил серьезную травму задней части черепа. Разбил подбородок, сломал нижнюю челюсть.
Фильм занесён в Книгу рекордов Гиннесса по количеству дублей одной сцены (где Джеки Чан, играя в китайский футбол, должен был забить гол маленьким воланчиком).



Скачать Лорд.Дракон.Long.xiao.ye.(Джеки.Чан.Jackie.Chan).[1981.боевик.комедия.спорт.DVDRip].[VO].torrent без регистрации
Золото ЗОЛОТАЯ РАЗДАЧА! СКАЧАННОЕ НЕ ЗАСЧИТЫВАЕТСЯ! Золото
Дата: Зарегистрирован   [ Тип: внутренний ] Как тут cкачать?
MAGNET ссылка
MAGNET ссылка


Скачать .torrent

28 KB

Статус: проверено DHT
Скачан: торрент - 165 раз, раздача полностью - 36 раз
Размер: 1,37 GB
Оценка:  - (Голосов: 0)
Поблагодарили: 0
Поделиться ссылкой на эту раздачу с друзьями:
В контактеFacebookОдноклассникиTwitterLivejournalМой МирLiveinternet
 

 
Показать сообщения:    


Вы не можете начинать темы
Вы не можете отвечать на сообщения
Вы не можете редактировать свои сообщения
Вы не можете удалять свои сообщения
Вы не можете голосовать в опросах
Вы не можете прикреплять файлы к сообщениям
Вы можете скачивать файлы