Loading...
Error

Скачать Познакомьтесь с Фиблами / Meet the Feebles (Питер Джексон) [1989, мюзикл, комедия, DVDRip] [VO]+[AVO] торрент без регистрации

 
Статистика раздачи
Размер:  1,46 GB   |    Скачан:  136 раз

Полного источника не было: 26 минут

 
Автор Сообщение

Marsianka

[] 

Информация о фильме
Название: Познакомьтесь с Фиблами
Оригинальное название: Meet the Feebles
Год выхода: 1989
Жанр: мюзикл, комедия
Режиссер: Питер Джексон / Peter Jackson
В ролях: Донна Акерстен, Стюарт Девени, Марк Хэдлоу, Росс Джолли, Брайан Серджент, Питер Вер-Джонс, Марк Райт, Дэнни Мулрон, Джей Сноуфилд, Даг Рен

О фильме:
Все начинается как милое семейное кукольное телешоу, которое с течением времени постепенно превращается в неимоверно циничный и эксцентричный «стеб» над многими аспектами нашей жизни и закулисной жизнью телевизионных «звезд» в частности. В труппу шоу, за несколько дней до премьеры, когда вовсю идут репетиции, приходит новый участник еж, влюбляющийся с первого взгляда в юную старлетку, не без взаимности.Но коварная крыса, снимающая в подвале студии садомазохистские порнофильмы с участием необъятных размеров коровы, а по совместительству и драгдилер, имеет свои планы на юную собачку. По ходу фильма бедный ежик, да и зритель вместе с ним, становится свидетелем закулисной жизни участников телепостановки



Страна: Новая Зеландия
Продолжительность: 01:32:38
Перевод: Перевод 1: Одноголосый закадровый Константин Филонов (voxsolus)
Перевод 2: Авторский (одноголосый закадровый) Антон Алексеев

Файл
Кодек: XviD
Качество: DVDRip
Видео: 624x464 (1.34:1), 23.976 fps, XviD build 65 ~1987 kbps avg, 0.29 bit/pixel
Звук:
Аудио 1: 44.100 kHz, MPEG Layer 3, 2 ch, ~128.00 kbps avg Филонов
Аудио 2: 48 kHz, MPEG Layer 3, 2 ch, ~128.00 kbps avg Алексеев
General
Complete name : D:РелизыMeet the Feebles.1989.2xRUS.DVDRip.XviD.MPEG Audio.avi
Format : AVI
Format/Info : Audio Video Interleave
File size : 1.46 GiB
Duration : 1h 32mn
Overall bit rate : 2 258 Kbps
Writing application : VirtualDubMod 1.5.10.2 (build 2540/release)
Writing library : VirtualDubMod build 2540/release
Video
ID : 0
Format : MPEG-4 Visual
Format profile : Advanced Simple@L5
Format settings, BVOP : 1
Format settings, QPel : No
Format settings, GMC : No warppoints
Format settings, Matrix : Custom
Codec ID : XVID
Codec ID/Hint : XviD
Duration : 1h 32mn
Bit rate : 1 988 Kbps
Width : 624 pixels
Height : 464 pixels
Display aspect ratio : 4:3
Frame rate : 23.976 fps
Color space : YUV
Chroma subsampling : 4:2:0
Bit depth : 8 bits
Scan type : Progressive
Compression mode : Lossy
Bits/(Pixel*Frame) : 0.286
Stream size : 1.29 GiB (88%)
Writing library : XviD 65
Audio #1
ID : 1
Format : MPEG Audio
Format version : Version 1
Format profile : Layer 3
Mode : Joint stereo
Mode extension : MS Stereo
Codec ID : 55
Codec ID/Hint : MP3
Duration : 1h 32mn
Bit rate mode : Constant
Bit rate : 128 Kbps
Channel(s) : 2 channels
Sampling rate : 44.1 KHz
Compression mode : Lossy
Stream size : 84.8 MiB (6%)
Alignment : Split accross interleaves
Interleave, duration : 42 ms (1.00 video frame)
Interleave, preload duration : 500 ms
Writing library : LAME3.99r
Encoding settings : -m j -V 4 -q 2 -lowpass 17 -b 128
Audio #2
ID : 2
Format : MPEG Audio
Format version : Version 1
Format profile : Layer 3
Mode : Joint stereo
Mode extension : MS Stereo
Codec ID : 55
Codec ID/Hint : MP3
Duration : 1h 32mn
Bit rate mode : Constant
Bit rate : 128 Kbps
Channel(s) : 2 channels
Sampling rate : 48.0 KHz
Compression mode : Lossy
Stream size : 84.8 MiB (6%)
Alignment : Aligned on interleaves
Interleave, duration : 42 ms (1.00 video frame)
Interleave, preload duration : 504 ms
Writing library : LAME3.99r
Encoding settings : -m j -V 4 -q 2 -lowpass 17 -b 128



Скачать Познакомьтесь.с.Фиблами.Meet.the.Feebles.(Питер.Джексон).[1989.мюзикл.комедия.DVDRip].[VO]+[AVO].torrent без регистрации
Золото ЗОЛОТАЯ РАЗДАЧА! СКАЧАННОЕ НЕ ЗАСЧИТЫВАЕТСЯ! Золото
Дата: Зарегистрирован   [ Тип: внутренний ] Как тут cкачать?
MAGNET ссылка
MAGNET ссылка


Скачать .torrent

15 KB

Статус: проверено DHT
Скачан: торрент - 136 раз, раздача полностью - 0 раз
Размер: 1,46 GB
Оценка:  - (Голосов: 0)
Поблагодарили: 1
Поделиться ссылкой на эту раздачу с друзьями:
В контактеFacebookОдноклассникиTwitterLivejournalМой МирLiveinternet
 

 
Показать сообщения:    


Вы не можете начинать темы
Вы не можете отвечать на сообщения
Вы не можете редактировать свои сообщения
Вы не можете удалять свои сообщения
Вы не можете голосовать в опросах
Вы не можете прикреплять файлы к сообщениям
Вы можете скачивать файлы