Loading...
Error

Скачать Альбино Аллигатор / Albino Alligator (Кевин Спейси) [1996, триллер, драма, криминал, BDRip-AVC] [MVO]+[Оригинал] торрент без регистрации

 
Статистика раздачи
Размер:  1,37 GB   |    Скачан:  119 раз
Сидов:  1  [  0 KB/s  ]  
 
Автор Сообщение

Marsianka

[] 

Альбино Аллигатор / Albino Alligator (1996) BDRip-AVC от PowerTracker

Жанр: триллер, драма, криминал
Страна: США , Франция
Режиссер: Кевин Спейси
В ролях: Мэтт Диллон, Скит Ульрих, Вигго Мортенсен, М. Эммет Уолш, Джон Спенсер, Джо Мантенья, Гэри Синиз, Фрэнки Фэйзон, Уильям Фихтнер, Мелинда МакГро, Фэй Данауэй

Сюжет фильма: Не каждый может стать героем. Но жертвами могут оказаться все. Идеально задуманное преступление не удалось. Несколько преступников скрываются от погони в маленьком подвальном кабачке. Все посетители взяты в заложники. Полиция блокирует единственный выход.

Ни полиция, ни бандиты не собираются уступать. Один из преступников вспоминает про то, как стая аллигаторов использует своего собрата-альбиноса в качестве приманки для конкурентов. Кто станет этой жертвой? И случайно ли преступники оказались в западне?

Мировая премьера: 9 сентября 1996



Продолжительность: 01:34:04
Качество видео: BDRip-AVC
Видео: кодек: x264, размер кадра: 1024х436, битрейт: 1665 кб/с, bit/pixel: 0.156
Аудио #1: язык: Русский , перевод: профессиональный многоголосый закадровый, кодек: AC3 2.0, битрейт: 224.00 кб/с
Аудио #2: язык: Английский , перевод: оригинал, кодек: AC3 2.0, битрейт: 192.00 кб/с

&
Общее
Уникальный идентификатор : 228474276248766966367128114892045473617 (0xABE28B8619E0B8A3A024F15D4CEAD751)
Полное имя : D:Albino Alligator.1996.BDRip-AVC.PT.mkv
Формат : Matroska
Версия формата : Version 2
Размер файла : 1,37 Гбайт
Продолжительность : 1 ч. 34 м.
Общий поток : 2082 Кбит/сек
Название фильма : Альбино Аллигатор / Albino Alligator (1996) BDRip-AVC rip by rulya74
Дата кодирования : UTC 2012-07-10 03:37:50
Программа кодирования : mkvmerge v5.6.0 ('Kenya Kane') built on May 27 2012 16:44:04
Библиотека кодирования : libebml v1.2.3 + libmatroska v1.3.0

Видео
Идентификатор : 1
Формат : AVC
Формат/Информация : Advanced Video Codec
Профиль формата : High@L4.1
Параметр CABAC формата : Да
Параметр ReFrames формата : 10 кадров
Идентификатор кодека : V_MPEG4/ISO/AVC
Продолжительность : 1 ч. 34 м.
Битрейт : 1665 Кбит/сек
Ширина : 1024 пикселя
Высота : 436 пикселей
Соотношение сторон : 2,35:1
Частота кадров : 23,976 кадра/сек
Цветовое пространство : YUV
Субдискретизация насыщенности : 4:2:0
Битовая глубина : 8 бит
Тип развёртки : Прогрессивная
Бит/(Пиксели*Кадры) : 0.156
Размер потока : 1,07 Гбайт (78%)
Библиотека кодирования : x264 core 125 r2200 999b753
Настройки программы : cabac=1 / ref=10 / deblock=1:-3:-2 / analyse=0x3:0x113 / me=umh / subme=10 / psy=1 / psy_rd=1.00:0.00 / mixed_ref=1 / me_range=34 / chroma_me=1 / trellis=2 / 8x8dct=1 / cqm=0 / deadzone=21,11 / fast_pskip=1 / chroma_qp_offset=-2 / threads=16 / lookahead_threads=2 / sliced_threads=0 / nr=0 / decimate=1 / interlaced=0 / bluray_compat=0 / constrained_intra=0 / bframes=11 / b_pyramid=2 / b_adapt=1 / b_bias=0 / direct=3 / weightb=1 / open_gop=0 / weightp=2 / keyint=240 / keyint_min=23 / scenecut=40 / intra_refresh=0 / rc=2pass / mbtree=0 / bitrate=1665 / ratetol=1.0 / qcomp=0.60 / qpmin=10 / qpmax=51 / qpstep=4 / cplxblur=20.0 / qblur=0.5 / ip_ratio=1.40 / pb_ratio=1.30 / aq=1:1.00
Язык : English
Default : Да
Forced : Нет

Аудио #1
Идентификатор : 2
Формат : AC-3
Формат/Информация : Audio Coding 3
Расширение режима : CM (complete main)
Идентификатор кодека : A_AC3
Продолжительность : 1 ч. 34 м.
Вид битрейта : Постоянный
Битрейт : 224 Кбит/сек
Каналы : 2 канала
Расположение каналов : Front: L R
Частота : 48,0 КГц
Битовая глубина : 16 бит
Метод сжатия : С потерями
Размер потока : 151 Мбайт (11%)
Заголовок : Многоголосый закадровый
Язык : Russian
Default : Да
Forced : Нет

Аудио #2
Идентификатор : 3
Формат : AC-3
Формат/Информация : Audio Coding 3
Расширение режима : CM (complete main)
Идентификатор кодека : A_AC3
Продолжительность : 1 ч. 34 м.
Вид битрейта : Постоянный
Битрейт : 192 Кбит/сек
Каналы : 2 канала
Расположение каналов : Front: L R
Частота : 48,0 КГц
Битовая глубина : 16 бит
Метод сжатия : С потерями
Размер потока : 129 Мбайт (9%)
Заголовок : Оригинал
Язык : English
Default : Нет
Forced : Нет



Скачать Альбино.Аллигатор.Albino.Alligator.(Кевин.Спейси).[1996.триллер.драма.криминал.BDRip-AVC].[MVO]+[Оригинал].torrent без регистрации
Золото ЗОЛОТАЯ РАЗДАЧА! СКАЧАННОЕ НЕ ЗАСЧИТЫВАЕТСЯ! Золото
Дата: Зарегистрирован   [ Тип: внутренний ] Как тут cкачать?
MAGNET ссылка
MAGNET ссылка


Скачать .torrent

14 KB

Статус: проверено DHT
Скачан: торрент - 119 раз, раздача полностью - 9 раз
Размер: 1,37 GB
Оценка:  - (Голосов: 0)
Поблагодарили: 2
Поделиться ссылкой на эту раздачу с друзьями:
В контактеFacebookОдноклассникиTwitterLivejournalМой МирLiveinternet
 

 

rocky

[] 

Ladies and gentlemen, please connect to the film
Дамы и господа, пожалуйста, подключитесь к фильму.
 
Показать сообщения:    


Вы не можете начинать темы
Вы не можете отвечать на сообщения
Вы не можете редактировать свои сообщения
Вы не можете удалять свои сообщения
Вы не можете голосовать в опросах
Вы не можете прикреплять файлы к сообщениям
Вы можете скачивать файлы