Loading...
Error

Скачать Зелёный шершень [Брюс Ли] / Green Hornet [Bruce Lee] (Серии: 1-2 из 2) (Уильям Бодайн, Норман Фостер, Е. Даррел Халленбек) [1974, боевик, криминал, DVDRip] [AVO] (Степанов) + [Original] + [Sub rus] (Ladypunk) торрент без регистрации

 
Статистика раздачи
Размер:  2,93 GB   |    Скачан:  297 раз
Сидов:  1  [  0 KB/s  ]  
 
Автор Сообщение

leon030982

[] 




Название: Зелёный шершень
Оригинальное название: The Green Hornet
Страна: США
Производство: 20th Century Fox Television, Greenway Productions
Год: 1974
Продолжительность: 01:23:16 (первый фильм), 01:28:32 (второй фильм)
Жанр: боевик, криминал
Перевод: любительский одноголосый закадровый ELVIS10.
Перевод текста: авторский Ladypunk
Субтитры: русские

Сценарий: Чарльз Хоффман, Кен Петтус, Фран Стрикер
Продюсер: Ричард М. Блюэл, Стэнли Шпетнер, Лоуренс Хоаким
Оператор: Карл Э. Гатри, Джек А. Марта, Ричард А. Келли
Композитор: Билли Мэй
Монтаж: Фред Р. Фейтшанс мл., Ноэль Л. Скотт
Режиссер: Уильям Бодайн / William Beaudine, Норман Фостер / Norman Foster, Е. Даррел Халленбек / E. Darrell Hallenbeck
В ролях:
Ван Уильямс, Брюс Ли, Чарльз Бейтман, Уолтер Брук, Том Дрэйк, Ллойд Гоф, Джеффри Хорн, Мако, Ларри Д. Манн, Гари Оуенс...

Описание:
После того, как один из основателей ведущей газеты в Сан-Франциско был убит, сын его компаньона, издатель газеты, дал клятву отцу, что не успокоится, пока не найдет убийц. Но дело заходит дальше расследования и личной мести — теперь по ночам журналист борется со злом и преступностью не словом, а делом под маской Зеленого Шершня.
Несколько эпизодов сериала "Зеленый Шершень" 1966 года были отредактированы и выпущены полнометражным фильмом в двух сериях в 1974 году.


Первая серия

Сэмпл: http://multi-up.com/522372
Качество: DVDRip
Формат: AVI
Видео-кодек: XviD
Аудио-кодек: AC3
Видео: 720x400 (1.76:1), 25 fps, XviD MPEG-4 ~2126 kbps avg, 0.30 bit/pixel
Аудио: Русский 48 kHz, AC3 Dolby Digital, 2/0 (L,R) ch, ~192.00 kbps avg|AVO|
Аудио: Английский 48 kHz, AC3 Dolby Digital, 2/0 (L,R) ~192 kbps avg |Оригинальная дорожка|
Общее
Полное имя : D:\Фильмы\1974 Зеленый Шершень\1974 Зеленый Шершень (1 из 2 серий).avi
Формат : AVI
Формат/Информация : Audio Video Interleave
Размер файла : 1,47 Гбайт
Продолжительность : 1 ч. 23 м.
Общий поток : 2520 Кбит/сек
Программа кодирования : VirtualDubMod 1.5.4.1 (build 2178/release)
Библиотека кодирования : VirtualDubMod build 2178/release
Видео
Идентификатор : 0
Формат : MPEG-4 Visual
Профиль формата : Advanced Simple@L5
Параметр BVOP формата : 1
Параметр QPel формата : Нет
Параметр GMC формата : Без точки перехода
Параметр матрицы формата : Выборочная
Идентификатор кодека : XVID
Идентификатор кодека/Подсказка : XviD
Продолжительность : 1 ч. 23 м.
Битрейт : 2127 Кбит/сек
Ширина : 704 пикс.
Высота : 400 пикс.
Соотношение сторон : 16:9
Частота кадров : 25,000 кадр/сек
Цветовое пространство : YUV
Подвыборка цветности : 4:2:0
Битовая глубина : 8 бит
Тип развёртки : Прогрессивная
Метод сжатия : С потерями
Бит/(Пиксели*Кадры) : 0.302
Размер потока : 1,24 Гбайт (84%)
Библиотека кодирования : XviD 64
Аудио #1
Идентификатор : 1
Формат : AC-3
Формат/Информация : Audio Coding 3
Расширение режима : CM (complete main)
Идентификатор кодека : 2000
Продолжительность : 1 ч. 23 м.
Вид битрейта : Постоянный
Битрейт : 192 Кбит/сек
Канал(ы) : 2 канала(ов)
Расположение каналов : Front: L R
Частота : 48,0 КГц
Битовая глубина : 16 бит
Метод сжатия : С потерями
Размер потока : 114 Мбайт (8%)
Выравнивание : Разделение по промежуткам
Продолжительность промежутка : 96 мс. (2,40 видеокадров)
Время предзагрузки промежутка : 96 ms
Аудио #2
Идентификатор : 2
Формат : AC-3
Формат/Информация : Audio Coding 3
Расширение режима : CM (complete main)
Идентификатор кодека : 2000
Продолжительность : 1 ч. 23 м.
Вид битрейта : Постоянный
Битрейт : 192 Кбит/сек
Канал(ы) : 2 канала(ов)
Расположение каналов : Front: L R
Частота : 48,0 КГц
Битовая глубина : 16 бит
Метод сжатия : С потерями
Размер потока : 114 Мбайт (8%)
Выравнивание : Разделение по промежуткам
Продолжительность промежутка : 96 мс. (2,40 видеокадров)
Время предзагрузки промежутка : 96 ms
File: 1974 Зеленый Шершень (1 из 2 серий).avi
Filesize: 1500.82 Mb ( 1 573 722 112 bytes )
Play length: 01:23:16.720 (124918 frames)
Subtitles: Not Present
Video: 720x544 (1.32:1), 25 fps, XviD build 64 ~1977 kbps avg, 0.20 bit/pixel
Audio #1: 48 kHz, AC3 Dolby Digital, 2/0 (L,R) ch, ~192.00 kbps avg
Audio #2: 48 kHz, AC3 Dolby Digital, 2/0 (L,R) ch, ~192.00 kbps avg


Вторая серия
Сэмпл: http://multi-up.com/522373
Качество: DVDRip
Формат: AVI
Видео-кодек: XviD
Аудио-кодек: AC3
Видео: 704x400 (1.76:1), 25 fps, XviD MPEG-4 ~2126 kbps avg, 0.30 bit/pixel
Аудио: Русский 48 kHz, AC3 Dolby Digital, 2/0 (L,R) ch, ~192.00 kbps avg|AVO|
Аудио: Английский 48 kHz, AC3 Dolby Digital, 2/0 (L,R) ~192 kbps avg |Оригинальная дорожка|

Общее
Полное имя : D:\Фильмы\1974 Зеленый Шершень\1974 Зеленый Шершень (2 из 2 серий).avi
Формат : AVI
Формат/Информация : Audio Video Interleave
Размер файла : 1,47 Гбайт
Продолжительность : 1 ч. 28 м.
Общий поток : 2370 Кбит/сек
Программа кодирования : VirtualDubMod 1.5.4.1 (build 2178/release)
Библиотека кодирования : VirtualDubMod build 2178/release
Видео
Идентификатор : 0
Формат : MPEG-4 Visual
Профиль формата : Advanced Simple@L5
Параметр BVOP формата : 1
Параметр QPel формата : Нет
Параметр GMC формата : Без точки перехода
Параметр матрицы формата : Выборочная
Идентификатор кодека : XVID
Идентификатор кодека/Подсказка : XviD
Продолжительность : 1 ч. 28 м.
Битрейт : 1977 Кбит/сек
Ширина : 720 пикс.
Высота : 544 пикс.
Соотношение сторон : 4:3
Частота кадров : 25,000 кадр/сек
Цветовое пространство : YUV
Подвыборка цветности : 4:2:0
Битовая глубина : 8 бит
Тип развёртки : Прогрессивная
Метод сжатия : С потерями
Бит/(Пиксели*Кадры) : 0.202
Размер потока : 1,22 Гбайт (83%)
Библиотека кодирования : XviD 64
Аудио #1
Идентификатор : 1
Формат : AC-3
Формат/Информация : Audio Coding 3
Расширение режима : CM (complete main)
Идентификатор кодека : 2000
Продолжительность : 1 ч. 28 м.
Вид битрейта : Постоянный
Битрейт : 192 Кбит/сек
Канал(ы) : 2 канала(ов)
Расположение каналов : Front: L R
Частота : 48,0 КГц
Битовая глубина : 16 бит
Метод сжатия : С потерями
Размер потока : 122 Мбайт (8%)
Выравнивание : Разделение по промежуткам
Продолжительность промежутка : 96 мс. (2,40 видеокадров)
Время предзагрузки промежутка : 96 ms
Аудио #2
Идентификатор : 2
Формат : AC-3
Формат/Информация : Audio Coding 3
Расширение режима : CM (complete main)
Идентификатор кодека : 2000
Продолжительность : 1 ч. 28 м.
Вид битрейта : Постоянный
Битрейт : 192 Кбит/сек
Канал(ы) : 2 канала(ов)
Расположение каналов : Front: L R
Частота : 48,0 КГц
Битовая глубина : 16 бит
Метод сжатия : С потерями
Размер потока : 122 Мбайт (8%)
Выравнивание : Разделение по промежуткам
Продолжительность промежутка : 96 мс. (2,40 видеокадров)
Время предзагрузки промежутка : 96 ms
File: 1974 Зеленый Шершень (2 из 2 серий).avi
Filesize: 1500.86 Mb ( 1 573 767 168 bytes )
Play length: 01:28:32.479 (132812 frames)
Subtitles: Present (SubRip format)
Video: 720x544 (1.32:1), 25 fps, XviD build 64 ~1977 kbps avg, 0.20 bit/pixel
Audio #1: 48 kHz, AC3 Dolby Digital, 2/0 (L,R) ch, ~192.00 kbps avg
Audio #2: 48 kHz, AC3 Dolby Digital, 2/0 (L,R) ch, ~192.00 kbps avg



Скачать Зелёный.шершень.[Брюс.Ли].Green.Hornet.[Bruce.Lee].(Серии.1-2.из.2).(Уильям.Бодайн.Норман.Фостер.Е.Даррел.Халленбек).[1974.боевик.криминал.DVDRip].[AVO].(Степанов).+.[Original].+.[Sub.rus].(Ladypunk).torrent без регистрации
Золото ЗОЛОТАЯ РАЗДАЧА! СКАЧАННОЕ НЕ ЗАСЧИТЫВАЕТСЯ! Золото
Дата: Зарегистрирован   [ Тип: внутренний ] Как тут cкачать?
MAGNET ссылка
MAGNET ссылка


Скачать .torrent

16 KB

Статус: проверено DHT
Скачан: торрент - 297 раз, раздача полностью - 116 раз
Размер: 2,93 GB
Оценка:  5 (Голосов: 1)
Поблагодарили: 1
Поделиться ссылкой на эту раздачу с друзьями:
В контактеFacebookОдноклассникиTwitterLivejournalМой МирLiveinternet
 

 

[] 

Топик был перенесен из форума Зарубежные сериалы в форум Фильмы до 2000 года

leon030982
 
Показать сообщения:    


Вы не можете начинать темы
Вы не можете отвечать на сообщения
Вы не можете редактировать свои сообщения
Вы не можете удалять свои сообщения
Вы не можете голосовать в опросах
Вы не можете прикреплять файлы к сообщениям
Вы можете скачивать файлы