Loading...
Error

Скачать Киборг / Cyborg (Альберт Пьюн / Albert Pyun) [1989, Фантастика, боевик, HDTVRip] [MVO] (студия "ИНИС") + 3х[AVO] (Дохалов, Гаврилов, Володарский) + [Sub] Rus, Eng + [Original Eng] торрент без регистрации

 
Статистика раздачи
Размер:  2,13 GB   |    Скачан:  143 раза

Полного источника не было: 24 минуты

 
Автор Сообщение

leon030982

[] 

Киборг / Cyborg

Страна: США
Жанр: Фантастика, боевик
Год выпуска: 1989
Продолжительность: 01:26:25
Перевод 1: Профессиональный (многоголосый закадровый) студия "ИНИС"
Перевод 2: Авторский (одноголосый закадровый) (В. Дохалов)
Перевод 3: Авторский (одноголосый закадровый) (А. Гаврилов)
Перевод 4: Авторский (одноголосый закадровый) (В. Володарский)
Cубтитры: Русские, английские - внешние, отдельными файлами
Оригинальная аудиодорожка: Английский
Режиссер: Альберт Пьюн / Albert Pyun

В ролях: Жан-Клод Ван Дамм, Дебора Рихтер, Винсент Клин, Алекс Дэниелс, Дэйл Хэддон, Блэйз Лунг, Ральф Мёллер, Хейли Петерсон, Джексон «Скала» Пинкни, Джэнис Грейсер
Описание: Мрачное будущее... Соединенные Штаты Америки лежат в руинах. Анархия, голод, геноцид... Следом пришла тихая смерть - неведомая чума стирает население всей планеты. Выжившие ученые в Атланте подобрались вплотную к открытию противоядия. Но им катастрофически не хватает данных. То, что им необходимо есть в Нью-Йорке, но туда нет пути. Весь мир между крохотными клочками цивилизации превратился в отравленную пустыню, населенную лютыми сворами отморозков. Выжить в ней может только существо с рефлексами хищника, молниеносной реакцией и отточенными как меч самурая навыками боя!

Сэмпл с профессиональным, английским: http://multi-up.com/731092
Сэмпл с авторскими переводами: http://multi-up.com/731092
Качество видео: HDTVRip - (HDTVRip (720p))
Формат видео: AVI
Видео: XVID 688x384 23.98fps 1524Kbps
Аудио 1: Dolby AC3 48000Hz 6ch 448Kbps - [Профессиональный (многоголосый закадровый)]
Аудио 2: Dolby AC3 48000Hz 6ch 448Kbps - [Английский]
Аудио 3: Dolby AC3 48000Hz 6ch 448Kbps - [Дохалов (отдельно)]
Аудио 4: Dolby AC3 48000Hz 6ch 448Kbps - [Гаврилов (отдельно)]
Аудио 4: Dolby AC3 48000Hz 2ch 192Kbps - [Володарский (отдельно)]
Формат субтитров: softsub (SRT)
General
Complete name : D:\3.Торренты\Ciborg.1989.XviD.HDTVRip\Ciborg.1989.XviD.HDTVRip.avi
Format : AVI
Format/Info : Audio Video Interleave
File size : 1.47 GiB
Duration : 1h 26mn
Overall bit rate : 2 434 Kbps
Movie name : Cyborg / Киборг
Director : vitalikmd
Writing application : VirtualDubModRus 1.5.10.2 (build 2542/release)
Writing library : VirtualDubMod build 2542/release
Video
Format : MPEG-4 Visual
Format profile : Streaming Video@L1
Format settings, BVOP : Yes
Format settings, QPel : No
Format settings, GMC : No warppoints
Format settings, Matrix : Default
Codec ID : XVID
Codec ID/Hint : XviD
Duration : 1h 26mn
Bit rate : 1 524 Kbps
Width : 688 pixels
Height : 384 pixels
Display aspect ratio : 16/9
Frame rate : 23.976 fps
Resolution : 24 bits
Colorimetry : 4:2:0
Scan type : Progressive
Bits/(Pixel*Frame) : 0.241
Stream size : 942 MiB (63%)
Writing library : XviD 50
Audio #1
Format : AC-3
Format/Info : Audio Coding 3
Codec ID : 2000
Duration : 1h 26mn
Bit rate mode : Constant
Bit rate : 448 Kbps
Channel(s) : 6 channels
Channel positions : Front: L C R, Surround: L R, LFE
Sampling rate : 48.0 KHz
Stream size : 277 MiB (18%)
Alignment : Split accross interleaves
Interleave, duration : 42 ms (1.00 video frame)
Interleave, preload duration : 500 ms
Audio #2
Format : AC-3
Format/Info : Audio Coding 3
Codec ID : 2000
Duration : 1h 26mn
Bit rate mode : Constant
Bit rate : 448 Kbps
Channel(s) : 6 channels
Channel positions : Front: L C R, Surround: L R, LFE
Sampling rate : 48.0 KHz
Stream size : 277 MiB (18%)
Alignment : Split accross interleaves
Interleave, duration : 42 ms (1.00 video frame)
Interleave, preload duration : 500 ms
Дохалов
Format : AC-3
Format/Info : Audio Coding 3
Codec ID : 2000
Duration : 1h 26mn
Bit rate mode : Constant
Bit rate : 448 Kbps
Channel(s) : 6 channels
Channel positions : Front: L C R, Surround: L R, LFE
Sampling rate : 48.0 KHz
Stream size : 277 MiB (17%)
Alignment : Split accross interleaves
Interleave, duration : 42 ms (1.00 video frame)
Interleave, preload duration : 500 ms
Гаврилов
Format : AC-3
Format/Info : Audio Coding 3
Codec ID : 2000
Duration : 1h 26mn
Bit rate mode : Constant
Bit rate : 448 Kbps
Channel(s) : 6 channels
Channel positions : Front: L C R, Surround: L R, LFE
Sampling rate : 48.0 KHz
Stream size : 277 MiB (17%)
Alignment : Split accross interleaves
Interleave, duration : 42 ms (1.00 video frame)
Interleave, preload duration : 500 ms
Володарский
Format : AC-3
Format/Info : Audio Coding 3
Codec ID : 2000
Duration : 1h 26mn
Bit rate mode : Constant
Bit rate : 192 Kbps
Channel(s) : 2 channels
Channel positions : L R
Sampling rate : 48.0 KHz
Stream size : 119 MiB (7%)
Alignment : Split accross interleaves
Interleave, duration : 42 ms (1.00 video frame)
Interleave, preload duration : 500 ms



Скачать Киборг.Cyborg.(Альберт.Пьюн.Albert.Pyun).[1989.Фантастика.боевик.HDTVRip].[MVO].(студия."ИНИС").+.3х[AVO].(Дохалов.Гаврилов.Володарский).+.[Sub].Rus.Eng.+.[Original.Eng].torrent без регистрации
Золото ЗОЛОТАЯ РАЗДАЧА! СКАЧАННОЕ НЕ ЗАСЧИТЫВАЕТСЯ! Золото
Дата: Зарегистрирован   [ Тип: внутренний ] Как тут cкачать?
MAGNET ссылка
MAGNET ссылка


Скачать .torrent

12 KB

Статус: проверено DHT
Скачан: торрент - 143 раз, раздача полностью - 9 раз
Размер: 2,13 GB
Оценка:  4,5 (Голосов: 2)
Поблагодарили: 3
Поделиться ссылкой на эту раздачу с друзьями:
В контактеFacebookОдноклассникиTwitterLivejournalМой МирLiveinternet
 

 
Показать сообщения:    


Вы не можете начинать темы
Вы не можете отвечать на сообщения
Вы не можете редактировать свои сообщения
Вы не можете удалять свои сообщения
Вы не можете голосовать в опросах
Вы не можете прикреплять файлы к сообщениям
Вы можете скачивать файлы