Loading...
Error

Скачать Правое дело / Just Cause (Арн Глимчер) [1995, триллер, драма, криминал, детектив, BDRip-AVC] [Dub]+[MVO]+[VO]+[Оригинал] торрент без регистрации

 
Статистика раздачи
Размер:  2,18 GB   |    Скачан:  136 раз

Полного источника не было: 22 минуты

 
Автор Сообщение

Marsianka

[] 

Правое дело / Just Cause (1995) BDRip-AVC от PowerTracker

Жанр: триллер, драма, криминал, детектив
Страна: США
Режиссер: Арн Глимчер
В ролях: Шон Коннери, Лоренс Фишбёрн, Кейт Кэпшоу, Блэр Андервуд, Эд Харрис, Кристофер Мюррэй, Руби Ди, Скарлетт Йоханссон, Дэниел Дж. Траванти, Нед Битти ...

Сюжет фильма: В болотах Флориды находят зверски убитую девочку. В убийстве обвиняют Бобби Эрла Фергюсона. В то время, как этот человек, которому грозит электрический стул, находится в камере смертников, гарвардский профессор Пол Армстронг пытается еще раз расследовать это преступление. Все глубже проникает он в сплетение расизма, интриг и преступлений, однако истина оказывается страшнее самых худших его предположений

Мировая премьера: 17 февраля 1995



Продолжительность: 01:42:21
Качество видео: BDRip-AVC
Видео: кодек: x264, размер кадра: 1024x428, битрейт: 2091 кб/с, bit/pixel: 0.199

&
Аудио #1: язык: Русский , перевод: дублированный (дубляж | Варус-Видео), кодек: AC3 2.0, битрейт: 192.00 кб/с
Аудио #2: язык: Русский , перевод: многоголосый закадровый (ТК "Россия"), кодек: AC3 2.0, битрейт: 192.00 кб/с
Аудио #3: язык: Русский , перевод: одноголосный закадровый (А. Гаврилов), кодек: AC3 2.0, битрейт: 192.00 кб/с
Аудио #4: язык: Украинский , перевод: многоголосый закадровый (НТН), кодек: AC3 2.0, битрейт: 192.00 кб/с
Аудио #5: язык: Английский , перевод: оригинал, кодек: AC3 2.0, битрейт: 192.00 кб/с
Общее
Уникальный идентификатор : 198859807198151356139284419835773533068 (0x959B01784B67D222938CDEAE0F273B8C)
Полное имя : D:Just Cause.1995.BDRip-AVC.PT.mkv
Формат : Matroska
Версия формата : Version 2
Размер файла : 2,18 Гбайт
Продолжительность : 1 ч. 42 м.
Общий поток : 3051 Кбит/сек
Название фильма : Правое дело / Just Cause (1995) BDRip-AVC rip by rulya74
Дата кодирования : UTC 2012-07-13 16:52:33
Программа кодирования : mkvmerge v5.7.0 ('The Whirlwind') built on Jul 8 2012 20:08:51
Библиотека кодирования : libebml v1.2.3 + libmatroska v1.3.0

Видео
Идентификатор : 1
Формат : AVC
Формат/Информация : Advanced Video Codec
Профиль формата : High@L4.1
Параметр CABAC формата : Да
Параметр ReFrames формата : 13 кадров
Идентификатор кодека : V_MPEG4/ISO/AVC
Продолжительность : 1 ч. 42 м.
Битрейт : 2091 Кбит/сек
Ширина : 1024 пикселя
Высота : 428 пикселей
Соотношение сторон : 2,40:1
Частота кадров : 23,976 кадра/сек
Цветовое пространство : YUV
Субдискретизация насыщенности : 4:2:0
Битовая глубина : 8 бит
Тип развёртки : Прогрессивная
Бит/(Пиксели*Кадры) : 0.199
Размер потока : 1,45 Гбайт (67%)
Библиотека кодирования : x264 core 125 r2200 999b753
Настройки программы : cabac=1 / ref=13 / deblock=1:-3:-3 / analyse=0x3:0x113 / me=umh / subme=10 / psy=1 / psy_rd=1.00:0.00 / mixed_ref=1 / me_range=40 / chroma_me=1 / trellis=2 / 8x8dct=1 / cqm=0 / deadzone=21,11 / fast_pskip=1 / chroma_qp_offset=-2 / threads=16 / lookahead_threads=2 / sliced_threads=0 / nr=0 / decimate=1 / interlaced=0 / bluray_compat=0 / constrained_intra=0 / bframes=12 / b_pyramid=2 / b_adapt=1 / b_bias=0 / direct=3 / weightb=1 / open_gop=0 / weightp=2 / keyint=240 / keyint_min=23 / scenecut=40 / intra_refresh=0 / rc=2pass / mbtree=0 / bitrate=2091 / ratetol=1.0 / qcomp=0.60 / qpmin=10 / qpmax=51 / qpstep=4 / cplxblur=20.0 / qblur=0.5 / ip_ratio=1.40 / pb_ratio=1.30 / aq=1:1.00
Default : Да
Forced : Нет

Аудио #1
Идентификатор : 2
Формат : AC-3
Формат/Информация : Audio Coding 3
Расширение режима : CM (complete main)
Идентификатор кодека : A_AC3
Продолжительность : 1 ч. 42 м.
Вид битрейта : Постоянный
Битрейт : 192 Кбит/сек
Каналы : 2 канала
Расположение каналов : Front: L R
Частота : 48,0 КГц
Битовая глубина : 16 бит
Метод сжатия : С потерями
Размер потока : 141 Мбайт (6%)
Заголовок : Дубляж (Варус-Видео)
Язык : Russian
Default : Нет
Forced : Нет

Аудио #2
Идентификатор : 3
Формат : AC-3
Формат/Информация : Audio Coding 3
Расширение режима : CM (complete main)
Идентификатор кодека : A_AC3
Продолжительность : 1 ч. 42 м.
Вид битрейта : Постоянный
Битрейт : 192 Кбит/сек
Каналы : 2 канала
Расположение каналов : Front: L R
Частота : 48,0 КГц
Битовая глубина : 16 бит
Метод сжатия : С потерями
Размер потока : 141 Мбайт (6%)
Заголовок : Многоголосый закадровый (ТК "Россия")
Язык : Russian
Default : Нет
Forced : Нет

Аудио #3
Идентификатор : 4
Формат : AC-3
Формат/Информация : Audio Coding 3
Расширение режима : CM (complete main)
Идентификатор кодека : A_AC3
Продолжительность : 1 ч. 42 м.
Вид битрейта : Постоянный
Битрейт : 192 Кбит/сек
Каналы : 2 канала
Расположение каналов : Front: L R
Частота : 48,0 КГц
Битовая глубина : 16 бит
Метод сжатия : С потерями
Размер потока : 141 Мбайт (6%)
Заголовок : Авторский одноголосый закадровый (А. Гаврилов)
Язык : Russian
Default : Нет
Forced : Нет

Аудио #4
Идентификатор : 5
Формат : AC-3
Формат/Информация : Audio Coding 3
Расширение режима : CM (complete main)
Идентификатор кодека : A_AC3
Продолжительность : 1 ч. 42 м.
Вид битрейта : Постоянный
Битрейт : 192 Кбит/сек
Каналы : 2 канала
Расположение каналов : Front: L R
Частота : 48,0 КГц
Битовая глубина : 16 бит
Метод сжатия : С потерями
Задержка видео : 6 с. 500 мс.
Размер потока : 141 Мбайт (6%)
Заголовок : Многоголосый закадровый (НТН)
Язык : Ukrainian
Default : Да
Forced : Нет

Аудио #5
Идентификатор : 6
Формат : AC-3
Формат/Информация : Audio Coding 3
Расширение режима : CM (complete main)
Идентификатор кодека : A_AC3
Продолжительность : 1 ч. 42 м.
Вид битрейта : Постоянный
Битрейт : 192 Кбит/сек
Каналы : 2 канала
Расположение каналов : Front: L R
Частота : 48,0 КГц
Битовая глубина : 16 бит
Метод сжатия : С потерями
Размер потока : 141 Мбайт (6%)
Заголовок : Оригинал
Язык : English
Default : Нет
Forced : Нет



Скачать Правое.дело.Just.Cause.(Арн.Глимчер).[1995.триллер.драма.криминал.детектив.BDRip-AVC].[Dub]+[MVO]+[VO]+[Оригинал].torrent без регистрации
Золото ЗОЛОТАЯ РАЗДАЧА! СКАЧАННОЕ НЕ ЗАСЧИТЫВАЕТСЯ! Золото
Дата: Зарегистрирован   [ Тип: внутренний ] Как тут cкачать?
MAGNET ссылка
MAGNET ссылка


Скачать .torrent

11 KB

Статус: проверено DHT
Скачан: торрент - 136 раз, раздача полностью - 17 раз
Размер: 2,18 GB
Оценка:  5 (Голосов: 1)
Поблагодарили: 4
Поделиться ссылкой на эту раздачу с друзьями:
В контактеFacebookОдноклассникиTwitterLivejournalМой МирLiveinternet
 

 
Показать сообщения:    


Вы не можете начинать темы
Вы не можете отвечать на сообщения
Вы не можете редактировать свои сообщения
Вы не можете удалять свои сообщения
Вы не можете голосовать в опросах
Вы не можете прикреплять файлы к сообщениям
Вы можете скачивать файлы