Loading...
Error

Скачать Вспышка / Проблеск / Flashpoint (Уильям Тэннен / William Tannen) [1984 г., триллер, DVDRip] [AVO] (Михалёв) + [Original] торрент без регистрации

 
Статистика раздачи
Размер:  1,45 GB   |    Скачан:  159 раз
Сидов:  1  [  0 KB/s  ]  
 
Автор Сообщение

leon030982

[] 

Вспышка / Проблеск / Flashpoint



Год выпуска: 1984
Страна:
США
Жанр: триллер
Рейтинг MPAA: R
Продолжительность: 01:30:16
Перевод:
Авторский (одноголосый) Михалёв
Оригинальная звуковая дорожкаCубтитры: Отсутствуют
Режиссёр: Уильям Тэннен / William Tannen
В ролях: Крис Кристофферсон /Kris Kristofferson/, Трит Уильямс /Treat Williams/, Рип Торн /Rip Torn/, Мигель Феррер /Miguel Ferrer/, Роберт Блоссом /Roberts Blossom/, Кевин Конвей /Kevin Conway/, Кертвуд Смит /Kurtwood Smith/, Жан Смарт /Jean Smart/, Гай Бойд /Guy Boyd
Описание: Офицеры пограничного патруля Боб Логан и Эрни Уайт, патрулируя свой участок мексиканской границы, случайно находят полузасыпанный песком джип, скелет, винтовку и 800000 долларов наличными, что вовлекает их в таинственную историю, начало которой датируется 1963 годом. Эта находка повлекла за собой вереницу захватывающих и насыщенных "экшном" приключений, ежеминутно грозящих им смертью. И связано это все, возможно, с убийством президента Кеннеди...

Автор рипа: mentat
Качество: DVDRip
Формат: AVI
Видео: 704x400 (1.76:1), 25 fps, XviD 65 ~1911 kbps avg, 0.27 bit/pixel
Аудио #1: 48 kHz, AC3 Dolby Digital, 2/0 (L,R) ch, ~192 kbps AVO
Аудио #2: 48 kHz, AC3 Dolby Digital, 2/0 (L,R) ch, ~192 kbps ENG
General
Complete name : F:\CINEMA3\Коллекция_2\Фильмы 80х-90х_ч.3\Проблеск [mentat] (1984) DVDRip.avi
Format : AVI
Format/Info : Audio Video Interleave
File size : 1.45 GiB
Duration : 1h 30mn
Overall bit rate : 2 308 Kbps
Writing application : VirtualDubMod 1.5.10.2 (build 2540/release)
Writing library : VirtualDubMod build 2540/release
Video
ID : 0
Format : MPEG-4 Visual
Format profile : Advanced Simple@L5
Format settings, BVOP : 1
Format settings, QPel : No
Format settings, GMC : No warppoints
Format settings, Matrix : Custom
Codec ID : XVID
Codec ID/Hint : XviD
Duration : 1h 30mn
Bit rate : 1 912 Kbps
Width : 704 pixels
Height : 400 pixels
Display aspect ratio : 16:9
Frame rate : 25.000 fps
Color space : YUV
Chroma subsampling : 4:2:0
Bit depth : 8 bits
Scan type : Progressive
Compression mode : Lossy
Bits/(Pixel*Frame) : 0.272
Stream size : 1.21 GiB (83%)
Writing library : XviD 65
Audio #1
ID : 1
Format : AC-3
Format/Info : Audio Coding 3
Mode extension : CM (complete main)
Format settings, Endianness : Big
Codec ID : 2000
Duration : 1h 29mn
Bit rate mode : Constant
Bit rate : 192 Kbps
Channel(s) : 2 channels
Channel positions : Front: L R
Sampling rate : 48.0 KHz
Bit depth : 16 bits
Compression mode : Lossy
Stream size : 123 MiB (8%)
Alignment : Split accross interleaves
Interleave, duration : 40 ms (1.01 video frame)
Interleave, preload duration : 500 ms
Audio #2
ID : 2
Format : AC-3
Format/Info : Audio Coding 3
Mode extension : CM (complete main)
Format settings, Endianness : Big
Codec ID : 2000
Duration : 1h 29mn
Bit rate mode : Constant
Bit rate : 192 Kbps
Channel(s) : 2 channels
Channel positions : Front: L R
Sampling rate : 48.0 KHz
Bit depth : 16 bits
Compression mode : Lossy
Stream size : 123 MiB (8%)
Alignment : Split accross interleaves
Interleave, duration : 40 ms (1.01 video frame)
Interleave, preload duration : 500 ms






Скачать Вспышка.Проблеск.Flashpoint.(Уильям.Тэннен.William.Tannen).[1984.г.триллер.DVDRip].[AVO].(Михалёв).+.[Original].torrent без регистрации
Золото ЗОЛОТАЯ РАЗДАЧА! СКАЧАННОЕ НЕ ЗАСЧИТЫВАЕТСЯ! Золото
Дата: Зарегистрирован   [ Тип: внутренний ] Как тут cкачать?
MAGNET ссылка
MAGNET ссылка


Скачать .torrent

15 KB

Статус: проверено DHT
Скачан: торрент - 159 раз, раздача полностью - 18 раз
Размер: 1,45 GB
Оценка:  5 (Голосов: 2)
Поблагодарили: 4
Поделиться ссылкой на эту раздачу с друзьями:
В контактеFacebookОдноклассникиTwitterLivejournalМой МирLiveinternet
 

 
Показать сообщения:    


Вы не можете начинать темы
Вы не можете отвечать на сообщения
Вы не можете редактировать свои сообщения
Вы не можете удалять свои сообщения
Вы не можете голосовать в опросах
Вы не можете прикреплять файлы к сообщениям
Вы можете скачивать файлы