Loading...
Error

Скачать Остров / The Island (Майкл Бэй / Michael Bay) [2005, боевик, фантастика, триллер, BDRip] [Лицензия] торрент без регистрации

 
Статистика раздачи
Размер:  1,46 GB   |    Скачан:  303 раза
Сидов:  1  [  0 KB/s  ]  
 
Автор Сообщение

leon030982

[] 

ОСТРОВ /The Island

«Вы были избраны.»
Страна: США
Жанр: боевик, фантастика, триллер
Студии: DreamWorks SKG, Warner Bros. Pictures, Parkes/MacDonald Productions
Год выпуска: 2005
Продолжительность: 02:16:04
Перевод: профессиональный (дублированный) лицензия
Субтитры: нет
Режиссёр: Майкл Бэй / Michael Bay
В ролях: Юэн МакГрегор (Lincoln Six Echo / Tom Lincoln), Скарлетт Йоханссон (Jordan Two Delta / Sarah Jordan), Джимон Хунсу (Albert Laurent), Шон Бин (Dr. Merrick), Стив Бушеми (James McCord), Майкл Кларк Дункан (Starkweather Two Delta), Итэн Филлипс (Jones Three Echo), Брайан Степанек (Gandu Three Echo), Ноа Тишби (Community Announcer), Сиобэн Флинн (Lima One Alpha).
Описание:

Линкольн Шесть-Эхо — житель на вид утопического, но охраняемого поселения середины XXI века. Как и все обитатели этого тщательно контролируемого пространства, Линкольн надеется оказаться среди тех, кого отправят на «Остров» — якобы последнее незагрязненное место на планете. Но очень скоро он обнаруживает, что абсолютно всё, что касается его существования — ложь...
6.8/10 (143971) 7.671 (40100)
Rip by
Качество видео:
BDRip
Формат файла:
AVI
Видео: XviD, 720x304 (2.35:1), 23.976 fps, 1333 kbps avg, 0.254 bit/pixel
Аудио: 48 kHz, AC3 Dolby Digital, 2/0 (L,R) ch, 192 kbps avg (Rus DUB)
Общее
Полное имя : D:\Torrent Rutracker\The.Island.2005.North.US.DUB.XviD.AC3.BDRip._by.ZNG505_.avi
Формат : AVI
Формат/Информация : Audio Video Interleave
Размер файла : 1,46 Гбайт
Продолжительность : 2 ч. 16 м.
Общий поток : 1535 Кбит/сек
Программа кодирования : VirtualDubMod 1.5.10.3 | www.virtualdub-fr.org || (build 2550/release)
Библиотека кодирования : VirtualDubMod build 2550/release
Видео
Идентификатор : 0
Формат : MPEG-4 Visual
Профиль формата : Advanced Simple@L5
Параметр BVOP формата : 2
Параметр QPel формата : Нет
Параметр GMC формата : Без точки перехода
Параметр матрицы формата : Выборочная
Идентификатор кодека : XVID
Идентификатор кодека/Подсказка : XviD
Продолжительность : 2 ч. 16 м.
Битрейт : 1333 Кбит/сек
Ширина : 720 пикселей
Высота : 304 пикселя
Соотношение сторон : 2,35:1
Частота кадров : 23,976 кадра/сек
Цветовое пространство : YUV
Субдискретизация насыщенности : 4:2:0
Битовая глубина : 8 бит
Тип развёртки : Прогрессивная
Метод сжатия : С потерями
Бит/(Пиксели*Кадры) : 0.254
Размер потока : 1,27 Гбайт (87%)
Библиотека кодирования : XviD 1.2.1 (UTC 2008-12-04)
Аудио
Идентификатор : 1
Формат : AC-3
Формат/Информация : Audio Coding 3
Расширение режима : CM (complete main)
Идентификатор кодека : 2000
Продолжительность : 2 ч. 16 м.
Вид битрейта : Постоянный
Битрейт : 192 Кбит/сек
Каналы : 2 канала
Расположение каналов : Front: L R
Частота : 48,0 КГц
Битовая глубина : 16 бит
Метод сжатия : С потерями
Размер потока : 187 Мбайт (13%)
Выравнивание : Разделение по промежуткам
Продолжительность промежутка : 42 мс. (1,00 видеокадр)
Время предзагрузки промежутка : 500 мс.



Скачать Остров.The.Island.(Майкл.Бэй.Michael.Bay).[2005.боевик.фантастика.триллер.BDRip].[Лицензия].torrent без регистрации
Золото ЗОЛОТАЯ РАЗДАЧА! СКАЧАННОЕ НЕ ЗАСЧИТЫВАЕТСЯ! Золото
Дата: Зарегистрирован   [ Тип: внутренний ] Как тут cкачать?
MAGNET ссылка
MAGNET ссылка


Скачать .torrent

15 KB

Статус: проверено DHT
Скачан: торрент - 303 раз, раздача полностью - 481 раз
Размер: 1,46 GB
Оценка:  5 (Голосов: 4)
Поблагодарили: 10
Поделиться ссылкой на эту раздачу с друзьями:
В контактеFacebookОдноклассникиTwitterLivejournalМой МирLiveinternet
 

 
Показать сообщения:    


Вы не можете начинать темы
Вы не можете отвечать на сообщения
Вы не можете редактировать свои сообщения
Вы не можете удалять свои сообщения
Вы не можете голосовать в опросах
Вы не можете прикреплять файлы к сообщениям
Вы можете скачивать файлы