Loading...
Error

Скачать Три супер героя / 3 dev adam (Фикрет Учак) [1973, Боевик, Криминал, DVDRip] [Sub] торрент без регистрации

 
Статистика раздачи
Размер:  974 MB   |    Скачан:  130 раз
Сидов:  1  [  0 KB/s  ]  
 
Автор Сообщение

Marsianka

[] 

Информация о фильме
Название: Три супер героя
Оригинальное название: 3 dev adam
Год выхода: 1973
Жанр: Боевик, Криминал
Режиссер: Т. Фикрет Учак / T. Fikret U—ak
В ролях: Айтекин Аккайя, Дэниз Эрканат, Йавуз Селекман, Тейфик Сен, Доган Тамер, Мине Сун и др.

О фильме:
Человек Паук переправляет фальшивые доллары из Турции в Соединенные Штаты, покупая на них редкий антиквариат. Полиция Стамбула не может справиться с растущей мафиозной силой Паука, и призывает на помощь национальных героев из Мексики и США - Санто и Капитана Америка.



Страна: Турция
Продолжительность: 01:19:01
Перевод: Субтитры (Доп. инфо о переводе - explocine / cinemascope)

Файл
Кодек: XviD
Качество: DVDRip
Видео: 640х480, 25.000 fps, 4:3 ratio, XviD 1 594 Kbps, 0.208 bit/pixel
Звук: [TUR] 44.1 KHz, MPEG Audio, 2 channels 65.9 MiB, 117 Kbps
Субтитры: Русские softsub (SRT)

Семпл
Video
ID : 0
Format : MPEG-4 Visual
Format profile : Advanced Simple@L5
Format settings, BVOP : 1
Format settings, QPel : No
Format settings, GMC : No warppoints
Format settings, Matrix : Default (MPEG)
Codec ID : XVID
Codec ID/Hint : XviD
Duration : 1h 19mn
Bit rate : 1 594 Kbps
Width : 640 pixels
Height : 480 pixels
Display aspect ratio : 4:3
Frame rate : 25.000 fps
Color space : YUV
Chroma subsampling : 4:2:0
Bit depth : 8 bits
Scan type : Progressive
Compression mode : Lossy
Bits/(Pixel*Frame) : 0.208
Stream size : 901 MiB (92%)
Writing library : XviD 1.2.1 (UTC 2008-12-04)

Audio
ID : 1
Format : MPEG Audio
Format version : Version 1
Format profile : Layer 3
Mode : Joint stereo
Mode extension : MS Stereo
Codec ID : 55
Codec ID/Hint : MP3
Duration : 1h 18mn
Bit rate mode : Variable
Bit rate : 117 Kbps
Nominal bit rate : 128 Kbps
Channel(s) : 2 channels
Sampling rate : 44.1 KHz
Compression mode : Lossy
Stream size : 65.9 MiB (7%)
Alignment : Aligned on interleaves
Interleave, duration : 26 ms (0.65 video frame)
Interleave, preload duration : 164 ms
Writing library : LAME3.98r
Encoding settings : -m j -V 4 -q 3 -lowpass 17 --abr 128



Скачать Три.супер.героя.3.dev.adam.(Фикрет.Учак).[1973.Боевик.Криминал.DVDRip].[Sub].torrent без регистрации
Золото ЗОЛОТАЯ РАЗДАЧА! СКАЧАННОЕ НЕ ЗАСЧИТЫВАЕТСЯ! Золото
Дата: Зарегистрирован   [ Тип: внутренний ] Как тут cкачать?
MAGNET ссылка
MAGNET ссылка


Скачать .torrent

20 KB

Статус: проверено DHT
Скачан: торрент - 130 раз, раздача полностью - 5 раз
Размер: 974 MB
Оценка:  - (Голосов: 0)
Поблагодарили: 1
Поделиться ссылкой на эту раздачу с друзьями:
В контактеFacebookОдноклассникиTwitterLivejournalМой МирLiveinternet
 

 
Показать сообщения:    


Вы не можете начинать темы
Вы не можете отвечать на сообщения
Вы не можете редактировать свои сообщения
Вы не можете удалять свои сообщения
Вы не можете голосовать в опросах
Вы не можете прикреплять файлы к сообщениям
Вы можете скачивать файлы