Loading...
Error

Скачать Кровавая шутка / Убийцы в клоунских масках / The Clown Murders(Мартин Берк (Мартин Берк) [1976, Триллер, драма, детектив, DVDRip] [VO] торрент без регистрации

 
Статистика раздачи
Размер:  1,01 GB   |    Скачан:  141 раз
Сидов:  1  [  0 KB/s  ]  
 
Автор Сообщение

Marsianka

[] 

Кровавая шутка / Убийцы в клоунских масках
Clown Murders, The

&laquoIt started as a joke...»

Страна: США, Канада
Жанр: Триллер, драма, детектив
Год выпуска: 1976
Продолжительность: 01:35:11
Перевод: Любительский (одноголосый закадровый)
Субтитры: Нет

Режиссёр: Мартин Берк / Martyn Burke
В ролях: Стивен Янг, Сьюзан Келлер, Лоуренс Дэйн, Джон Кэнди, Гэри Райнеке, Джон Бэйлисс, Ал Ваксман, Майкл Маги, Цик Линдер, Уильям Ослер, Филип Крэйг, Ден Болтман, Питер Калверли, Гленн Феррье, Том Оффен

Описание фильма: Группа студентов-выпускников решает подшутить над одной из своих бывших сокурсниц, которая вышла замуж за богатого бизнесмена и бросила учебу. Дело в том, что тот вскоре собирается заключить очень выгодную сделку в сфере недвижимости, на которую студенты также положили глаз. Они решают похитить супругу бизнесмена и тем самым сорвать сделку. Но в результате нелепой случайности шутка приобретает серьезный оттенок




Качество: DVDRip
Формат: AVI
Видео: DivX 5; 688x384 (16:9); 1244 Kbps; 23,976 fps; 0,196 bpp
Аудио 1: MP3; 128 Kbps; CBR; 2 ch [Русский]
Аудио 2: MP3; 128 Kbps; CBR; 2 ch [Английский]





Format : AVI
Format/Info : Audio Video Interleave
File size : 1.01 GiB
Duration : 1h 35mn
Overall bit rate : 1 514 Kbps
Writing application : VirtualDubMod 1.5.10.2 (build 2540/release)
Writing library : VirtualDubMod build 2540/release

Video
ID : 0
Format : MPEG-4 Visual
Format settings, BVOP : 1
Format settings, QPel : No
Format settings, GMC : No warppoints
Format settings, Matrix : Default (H.263)
Muxing mode : Packed bitstream
Codec ID : DX50
Codec ID/Hint : DivX 5
Duration : 1h 35mn
Bit rate : 1 245 Kbps
Width : 688 pixels
Height : 384 pixels
Display aspect ratio : 16:9
Frame rate : 23.976 fps
Color space : YUV
Chroma subsampling : 4:2:0
Bit depth : 8 bits
Scan type : Progressive
Compression mode : Lossy
Bits/(Pixel*Frame) : 0.196
Stream size : 847 MiB (82%)
Writing library : DivX 6.7.0 (UTC 2007-09-20)

Audio #1
ID : 1
Format : MPEG Audio
Format version : Version 1
Format profile : Layer 3
Mode : Joint stereo
Mode extension : MS Stereo
Codec ID : 55
Codec ID/Hint : MP3
Duration : 1h 35mn
Bit rate mode : Constant
Bit rate : 128 Kbps
Channel(s) : 2 channels
Sampling rate : 48.0 KHz
Compression mode : Lossy
Stream size : 87.1 MiB (8%)
Alignment : Aligned on interleaves
Interleave, duration : 42 ms (1.00 video frame)
Interleave, preload duration : 504 ms

Audio #2
ID : 2
Format : MPEG Audio
Format version : Version 1
Format profile : Layer 3
Mode : Joint stereo
Mode extension : MS Stereo
Codec ID : 55
Codec ID/Hint : MP3
Duration : 1h 35mn
Bit rate mode : Constant
Bit rate : 128 Kbps
Channel(s) : 2 channels
Sampling rate : 48.0 KHz
Compression mode : Lossy
Stream size : 87.1 MiB (8%)
Alignment : Aligned on interleaves
Interleave, duration : 42 ms (1.00 video frame)
Interleave, preload duration : 504 ms
Writing library : LAME3.97
Encoding settings : -m j -V 4 -q 2 -lowpass 17 -b 128




Скачать Кровавая.шутка.Убийцы.в.клоунских.масках.The.Clown.Murders(Мартин.Берк.(Мартин.Берк).[1976.Триллер.драма.детектив.DVDRip].[VO].torrent без регистрации
Золото ЗОЛОТАЯ РАЗДАЧА! СКАЧАННОЕ НЕ ЗАСЧИТЫВАЕТСЯ! Золото
Дата: Зарегистрирован   [ Тип: внутренний ] Как тут cкачать?
MAGNET ссылка
MAGNET ссылка


Скачать .torrent

10 KB

Статус: проверено DHT
Скачан: торрент - 141 раз, раздача полностью - 0 раз
Размер: 1,01 GB
Оценка:  - (Голосов: 0)
Поблагодарили: 1
Поделиться ссылкой на эту раздачу с друзьями:
В контактеFacebookОдноклассникиTwitterLivejournalМой МирLiveinternet
 

 
Показать сообщения:    


Вы не можете начинать темы
Вы не можете отвечать на сообщения
Вы не можете редактировать свои сообщения
Вы не можете удалять свои сообщения
Вы не можете голосовать в опросах
Вы не можете прикреплять файлы к сообщениям
Вы можете скачивать файлы