Loading...
Error

Скачать Ночи в стиле буги / Boogie Nights (Пол Томас Андерсон) [1997, драма, биография, BDRip-AVC] [MVO]+[AVO]+[Оригинал]+[Sub] торрент без регистрации

 
Статистика раздачи
Размер:  2,17 GB   |    Скачан:  142 раза
Сидов:  1  [  0 KB/s  ]  
 
Автор Сообщение

Marsianka

[] 

Ночи в стиле буги / Boogie Nights (1997) BDRip-AVC от PowerTracker

Жанр: драма, биография
Страна: США
Режиссер: Пол Томас Андерсон
В ролях: Марк Уолберг, Джулиан Мур, Берт Рейнолдс, Джон Рейли, Уильям Мэйси, Дон Чидл, Хизер Грэм, Филип Сеймур Хоффман, Альфред Молина, Луис Гузман, Мелора Уолтерс, Томас Джейн, Нина Хартли, Вероника Харт

Сюжет фильма: Эта история начинается в 1977 году в долине Сан-Фернандо, когда всемирно известный режиссёр порнофильмов Джек Хорнер встретил в ресторане ночного клуба молодого официанта Эдди Адамса и понял, что этот юноша как раз то, что ему в данный момент необходимо.

Интуиция не подвела опытного порномастера: Эдди оказался настоящим кладом для того рода деятельности, которым занимался Хорнер. На пробных съёмках с самой опытной порнозвездой Эмбер Эдди показал себя мастером высшего класса, и началась его «раскрутка» в качестве звезды порно и триумфальное шествие по стране фильмов с новой звездой. А в карманы Хорнера и его сподвижников потекли огромные деньги. Но влюблённая в него Эмбер сама способствовала началу падения этой удивительной карьеры. И случилось это, когда она, шутя, познакомила Дирка с наркотиками

Мировая премьера: 11 сентября 1997



Продолжительность: 2:35:35
Качество видео: BDRip-AVC
Видео: кодек: x264, размер кадра: 1024х426, битрейт: 1424 кб/с, bit/pixel: 0.136
Аудио #1: язык: Русский , перевод: профессиональный многоголосый закадровый, кодек: AC3 2.0, битрейт: 192.00 кб/с
Аудио #2: язык: Русский , перевод: авторский одноголосный закадровый (Ю. Живов), кодек: AC3 2.0, битрейт: 192.00 кб/с
Аудио #3: язык: Английский , перевод: оригинал, кодек: AC3 2.0, битрейт: 192.00 кб/с
Субтитры: тип: вшитые отключаемые, формат: SRT, язык: Русский, Английский

&
Общее
Уникальный идентификатор : 254453637812655977508874980364031076009 (0xBF6DFCF0FC9B043990564A4A3193A6A9)
Полное имя : D:Boogie Nights.1997.BDRip-AVC.PT.mkv
Формат : Matroska
Версия формата : Version 2
Размер файла : 2,17 Гбайт
Продолжительность : 2 ч. 35 м.
Общий поток : 2001 Кбит/сек
Название фильма : Ночи в стиле буги / Boogie Nights (1997) BDRip-AVC rip by rulya74
Дата кодирования : UTC 2012-07-15 06:03:45
Программа кодирования : mkvmerge v5.7.0 ('The Whirlwind') built on Jul 8 2012 20:08:51
Библиотека кодирования : libebml v1.2.3 + libmatroska v1.3.0

Видео
Идентификатор : 1
Формат : AVC
Формат/Информация : Advanced Video Codec
Профиль формата : High@L4.1
Параметр CABAC формата : Да
Параметр ReFrames формата : 14 кадров
Идентификатор кодека : V_MPEG4/ISO/AVC
Продолжительность : 2 ч. 35 м.
Битрейт : 1424 Кбит/сек
Ширина : 1024 пикселя
Высота : 426 пикселей
Соотношение сторон : 2,40:1
Частота кадров : 23,976 кадра/сек
Цветовое пространство : YUV
Субдискретизация насыщенности : 4:2:0
Битовая глубина : 8 бит
Тип развёртки : Прогрессивная
Бит/(Пиксели*Кадры) : 0.136
Размер потока : 1,51 Гбайт (69%)
Библиотека кодирования : x264 core 125 r2200 999b753
Настройки программы : cabac=1 / ref=14 / deblock=1:-3:-3 / analyse=0x3:0x113 / me=umh / subme=10 / psy=1 / psy_rd=1.00:0.00 / mixed_ref=1 / me_range=46 / chroma_me=1 / trellis=2 / 8x8dct=1 / cqm=0 / deadzone=21,11 / fast_pskip=1 / chroma_qp_offset=-2 / threads=15 / lookahead_threads=2 / sliced_threads=0 / nr=0 / decimate=1 / interlaced=0 / bluray_compat=0 / constrained_intra=0 / bframes=13 / b_pyramid=2 / b_adapt=1 / b_bias=0 / direct=3 / weightb=1 / open_gop=0 / weightp=2 / keyint=240 / keyint_min=23 / scenecut=40 / intra_refresh=0 / rc=2pass / mbtree=0 / bitrate=1424 / ratetol=1.0 / qcomp=0.60 / qpmin=10 / qpmax=51 / qpstep=4 / cplxblur=20.0 / qblur=0.5 / ip_ratio=1.40 / pb_ratio=1.30 / aq=1:1.00
Default : Да
Forced : Нет

Аудио #1
Идентификатор : 2
Формат : AC-3
Формат/Информация : Audio Coding 3
Расширение режима : CM (complete main)
Идентификатор кодека : A_AC3
Продолжительность : 2 ч. 35 м.
Вид битрейта : Постоянный
Битрейт : 192 Кбит/сек
Каналы : 2 канала
Расположение каналов : Front: L R
Частота : 48,0 КГц
Битовая глубина : 16 бит
Метод сжатия : С потерями
Размер потока : 214 Мбайт (10%)
Заголовок : Многоголосый закадровый
Язык : Russian
Default : Да
Forced : Нет

Аудио #2
Идентификатор : 3
Формат : AC-3
Формат/Информация : Audio Coding 3
Расширение режима : CM (complete main)
Идентификатор кодека : A_AC3
Продолжительность : 2 ч. 35 м.
Вид битрейта : Постоянный
Битрейт : 192 Кбит/сек
Каналы : 2 канала
Расположение каналов : Front: L R
Частота : 48,0 КГц
Битовая глубина : 16 бит
Метод сжатия : С потерями
Размер потока : 214 Мбайт (10%)
Заголовок : Одноголосый Ю. Живов
Язык : Russian
Default : Нет
Forced : Нет

Аудио #3
Идентификатор : 4
Формат : AC-3
Формат/Информация : Audio Coding 3
Расширение режима : CM (complete main)
Идентификатор кодека : A_AC3
Продолжительность : 2 ч. 35 м.
Вид битрейта : Постоянный
Битрейт : 192 Кбит/сек
Каналы : 2 канала
Расположение каналов : Front: L R
Частота : 48,0 КГц
Битовая глубина : 16 бит
Метод сжатия : С потерями
Размер потока : 214 Мбайт (10%)
Заголовок : Оригинал
Язык : English
Default : Нет
Forced : Нет

Текст #1
Идентификатор : 5
Формат : UTF-8
Идентификатор кодека : S_TEXT/UTF8
Идентификатор кодека/Информация : UTF-8 Plain Text
Язык : Russian
Default : Нет
Forced : Нет

Текст #2
Идентификатор : 6
Формат : UTF-8
Идентификатор кодека : S_TEXT/UTF8
Идентификатор кодека/Информация : UTF-8 Plain Text
Язык : English
Default : Нет
Forced : Нет



Скачать Ночи.в.стиле.буги.Boogie.Nights.(Пол.Томас.Андерсон).[1997.драма.биография.BDRip-AVC].[MVO]+[AVO]+[Оригинал]+[Sub].torrent без регистрации
Золото ЗОЛОТАЯ РАЗДАЧА! СКАЧАННОЕ НЕ ЗАСЧИТЫВАЕТСЯ! Золото
Дата: Зарегистрирован   [ Тип: внутренний ] Как тут cкачать?
MAGNET ссылка
MAGNET ссылка


Скачать .torrent

11 KB

Статус: проверено DHT
Скачан: торрент - 142 раз, раздача полностью - 15 раз
Размер: 2,17 GB
Оценка:  - (Голосов: 0)
Поблагодарили: 2
Поделиться ссылкой на эту раздачу с друзьями:
В контактеFacebookОдноклассникиTwitterLivejournalМой МирLiveinternet
 

 
Показать сообщения:    


Вы не можете начинать темы
Вы не можете отвечать на сообщения
Вы не можете редактировать свои сообщения
Вы не можете удалять свои сообщения
Вы не можете голосовать в опросах
Вы не можете прикреплять файлы к сообщениям
Вы можете скачивать файлы