Loading...
Error

Скачать Багровая мгла / Red Mist / Freakdog (Пэдди Бретнэк / Paddy Breathnach) [2008, ужасы, триллер, BDRip] торрент без регистрации

 
Статистика раздачи
Размер:  1,72 GB   |    Скачан:  136 раз
Сидов:  1  [  0 KB/s  ]  
 
Автор Сообщение

Marsianka

[] 



Багровая мгла / Red Mist / Freakdog (2008) BDRip

Страна: Великобритания
Жанр: ужасы, триллер
Год выпуска: 2008
Продолжительность: 01:25:22

Перевод: Авторский (одноголосый) - [RussianGuy27]
Cубтитры: русские, английские - отдельно
Оригинальная аудиодорожка: английский - отдельно

Режиссер: Пэдди Бретнэк / Paddy Breathnach

В ролях: Ариэль Кеббел (Arielle Kebbel), Сара Картер (Sarah Carter),
Стивен Диллэйн (Stephen Dillane), Эндрю Ли Поттс (Andrew Lee Potts),
Алекс Уиндэм (Alex Wyndham), Кэти МакГрат (Katie McGrath), Кристина Чонг
(Christina Chong), Мартин Компстон (Martin Compston), Майкл Джибсон (Michael Jibson)

Описание: Молодая доктор вводит некий экспериментальный коктейль
наркотических веществ пациенту, находящемуся в коме. В результате пациент выходит из комы,
но довольно оригинальным образом — его дух начинает вселяться в тела других людей и,
используя эти тела, мстит студентам-медикам, по вине которых он и впал в состояние комы.
Главная героиня тоже входит в число его потенциальных жертв…

Доп. информация:

ВНИМАНИЕ! Фильм содержит нецензурную лексику, насилие, использование спиртных напитков и демонстрацию обнаженных частей тела

Качество видео: BDRip(Исх. BDRemux)
Формат видео: AVI

Видео: 720x400 (1.80:1), 23.976 fps, XviD build 50 ~2047 kbps avg, 0.30 bit/pixel
Аудио: 48 kHz, AC3 Dolby Digital, 3/2 (L,C,R,l,r) + LFE ch, ~384 kbps RUS
Аудио: 48 kHz, AC3 Dolby Digital, 3/2 (L,C,R,l,r) + LFE ch, ~448 kbps ENG - отдельно
Формат субтитров: softsub (SSA/ASS)

File: Bagrovaya mgla.chopper887.avi
Title: Bagrovaya mgla.chopper887
Author: chopper887
Filesize: 1491.66 Mb ( 1 564 123 136 bytes )
Play length: 01:25:25.586 (122891 frames)
Subtitles: eng, rus (SubStation Alpha format)
Video: 720x400 (1.80:1), 23.976 fps, XviD build 50 ~2047 kbps avg, 0.30 bit/pixel
Audio: 48 kHz, AC3 Dolby Digital, 3/2 (L,C,R,l,r) + LFE ch, ~384 kbps
General
Complete name : D:Bagrovaya mgla.chopper887Bagrovaya mgla.chopper887.avi
Format : AVI
Format/Info : Audio Video Interleave
File size : 1.46 GiB
Duration : 1h 25mn
Overall bit rate : 2 441 Kbps
Writing application : VirtualDubMod 1.5.10.3 | www.virtualdub-fr.org || (build 2550/release)
Writing library : VirtualDubMod build 2550/release

Video
ID : 0
Format : MPEG-4 Visual
Format profile : Advanced Simple@L5
Format settings, BVOP : Yes
Format settings, QPel : No
Format settings, GMC : No warppoints
Format settings, Matrix : Custom
Codec ID : XVID
Codec ID/Hint : XviD
Duration : 1h 25mn
Bit rate : 2 048 Kbps
Width : 720 pixels
Height : 400 pixels
Display aspect ratio : 16:9
Frame rate : 23.976 fps
Color space : YUV
Chroma subsampling : 4:2:0
Bit depth : 8 bits
Scan type : Progressive
Compression mode : Lossy
Bits/(Pixel*Frame) : 0.297
Stream size : 1.22 GiB (84%)
Writing library : XviD 1.2.1 (UTC 2008-12-04)

Audio
ID : 1
Format : AC-3
Format/Info : Audio Coding 3
Mode extension : CM (complete main)
Codec ID : 2000
Duration : 1h 25mn
Bit rate mode : Constant
Bit rate : 384 Kbps
Channel(s) : 6 channels
Channel positions : Front: L C R, Side: L R, LFE
Sampling rate : 48.0 KHz
Bit depth : 16 bits
Compression mode : Lossy
Stream size : 235 MiB (16%)
Alignment : Split accross interleaves
Interleave, duration : 42 ms (1.00 video frame)
Interleave, preload duration : 500 ms



Скачать Багровая.мгла.Red.Mist.Freakdog.(Пэдди.Бретнэк.Paddy.Breathnach).[2008.ужасы.триллер.BDRip].torrent без регистрации
Золото ЗОЛОТАЯ РАЗДАЧА! СКАЧАННОЕ НЕ ЗАСЧИТЫВАЕТСЯ! Золото
Дата: Зарегистрирован   [ Тип: внутренний ] Как тут cкачать?
MAGNET ссылка
MAGNET ссылка


Скачать .torrent

18 KB

Статус: проверено DHT
Скачан: торрент - 136 раз, раздача полностью - 17 раз
Размер: 1,72 GB
Оценка:  5 (Голосов: 1)
Поблагодарили: 1
Поделиться ссылкой на эту раздачу с друзьями:
В контактеFacebookОдноклассникиTwitterLivejournalМой МирLiveinternet
 

 
Показать сообщения:    


Вы не можете начинать темы
Вы не можете отвечать на сообщения
Вы не можете редактировать свои сообщения
Вы не можете удалять свои сообщения
Вы не можете голосовать в опросах
Вы не можете прикреплять файлы к сообщениям
Вы можете скачивать файлы