Loading...
Error

Скачать Короткая игра (Аким Салбиев) [1990, криминальный фильм, социальная драма, DVB] торрент без регистрации

 
Статистика раздачи
Размер:  1,96 GB   |    Скачан:  131 раз
Сидов:  1  [  0 KB/s  ]  
 
Автор Сообщение

МихаНЕзатор

[] 

Информация о фильме
Название: Короткая игра
Год выхода: 1990
Жанр: криминальный фильм, социальная драма
Режиссер: Аким Салбиев
В ролях: Юрий Шлыков, Вера Глаголева, Аристарх Ливанов, Эдуард Марцевич, Кирилл Марцевич, Михаил Мамаев, Зинаида Шарко, Полина Мостовая, Владимир Мукусев, Михаил Глузский, Элина Исмайлова, Игорь Пушкарёв, Аким Салбиев, Ольга Шлыкова, Андрей Дементьев (II), Татьяна Митрухина

О фильме:
Поблекший от беспросветно серой жизни архитектор встречает друга детства и приходит в недоумение от его шикарного существования. Но ничего не просит и даже отказывается от помощи.


Страна: Россия
Продолжительность: 01:24:01

Файл
Кодек: MPEG-PS
Качество: DVB
Видео: MPEG Video, 704x576 (4 : 3), 25,000 кадров/сек, 3076 Кбит/сек
Звук: MPEG Audio, 48,0 КГц, 192 Кбит/сек, 2 канала
Общее
Полное имя : E:TorrentКОРОТКАЯ ИГРАКОРОТКАЯ ИГРА.mpg
Формат : MPEG-PS
Размер файла : 1,96 Гбайт
Продолжительность : 1 ч. 24 м.
Режим общего битрейта : Переменный
Общий поток : 3334 Кбит/сек

Видео
Идентификатор : 224 (0xE0)
Формат : MPEG Video
Версия формата : Version 2
Профиль формата : Main@Main
Параметр BVOP формата : Да
Параметр матрицы формата : Выборочная
Параметр GOP формата : M=1, N=13
Продолжительность : 1 ч. 24 м.
Вид битрейта : Переменный
Битрейт : 3076 Кбит/сек
Максимальный битрейт : 15,0 Мбит/сек
Ширина : 704 пикселя
Высота : 576 пикселей
Соотношение сторон : 4:3
Частота кадров : 25,000 кадров/сек
Стандарт вещания : PAL
Цветовое пространство : YUV
Субдискретизация насыщенности : 4:2:0
Битовая глубина : 8 бит
Тип развёртки : Чересстрочная
Порядок развёртки : Верхнее поле первое
Метод сжатия : С потерями
Бит/(Пиксели*Кадры) : 0.303
Размер потока : 1,81 Гбайт (92%)

Аудио
Идентификатор : 192 (0xC0)
Формат : MPEG Audio
Версия формата : Version 1
Профиль формата : Layer 2
Продолжительность : 1 ч. 24 м.
Вид битрейта : Постоянный
Битрейт : 192 Кбит/сек
Каналы : 2 канала
Частота : 48,0 КГц
Метод сжатия : С потерями
Размер потока : 115 Мбайт (6%)



Скачать Короткая.игра.(Аким.Салбиев).[1990.криминальный.фильм.социальная.драма.DVB].torrent без регистрации
Золото ЗОЛОТАЯ РАЗДАЧА! СКАЧАННОЕ НЕ ЗАСЧИТЫВАЕТСЯ! Золото
Дата: Зарегистрирован   [ Тип: внутренний ] Как тут cкачать?
MAGNET ссылка
MAGNET ссылка


Скачать .torrent

20 KB

Статус: проверено DHT
Скачан: торрент - 131 раз, раздача полностью - 15 раз
Размер: 1,96 GB
Оценка:  - (Голосов: 0)
Поблагодарили: 1
Поделиться ссылкой на эту раздачу с друзьями:
В контактеFacebookОдноклассникиTwitterLivejournalМой МирLiveinternet
 

 
Показать сообщения:    


Вы не можете начинать темы
Вы не можете отвечать на сообщения
Вы не можете редактировать свои сообщения
Вы не можете удалять свои сообщения
Вы не можете голосовать в опросах
Вы не можете прикреплять файлы к сообщениям
Вы можете скачивать файлы