Loading...
Error

Скачать Путешествие во влюбленность (Евгений Лунгин) [2007, лирическая комедия, мелодрама, DVDRip] торрент без регистрации

 
Статистика раздачи
Размер:  744 MB   |    Скачан:  130 раз
Сидов:  1  [  0 KB/s  ]  
 
Автор Сообщение

МихаНЕзатор

[] 

Информация о фильме
Название: Путешествие во влюбленность
Год выхода: 2007
Жанр: мелодрама, комедия
Режиссер: Евгений Лунгин
В ролях: Эльвира Болгова, Дмитрий Марьянов, Алексей Зуев, Григорий Данцигер, Анна Ардова, Михаил Багдасаров, Юлия Куварзина, Максим Литовченко, Руслан Садковский, Геннадий Храпунков

О фильме:
Эта история типична для нашего времени. Есть много женщин, которые смогли сделать прекрасную карьеру, но при этом в личной жизни у них полная неопределенность. С годами такие дамы понимают, что никакой профессиональный успех не заменит семейного счастья. Подобный момент прозрения настает и в жизни героини фильма Катерины.

Подруги очень хотят ей помочь, но могут посоветовать только знакомства через Интернет. Убеждают, что многие так находят свое счастье, обретают близких людей. Деловая женщина долго не может согласиться, потому что не верит в виртуальное общение, но другого варианта все равно нет, и она решает рискнуть!

Итак, Катерина размещает свою анкету в Сети и ждет откликов. Их множество. Наша героиня выбирает четверых заграничных кавалеров и назначает им встречи



Страна: Россия
Продолжительность: 01:42:14
Перевод: Не требуется

Файл
Кодек: XviD / MP3
Качество: DVDRip
Видео: XviD, 640x368 (16:9), 25.000 fps, 882 Kbps (0.150 bit/pixel)
Звук: MP3, 48.0 KHz, 2 ch, 128 Kbps, CBR
General
Complete name : /media/Путешествие.во.влюбленность_DVDRip.745_[Rutor.org].avi
Format : AVI
Format/Info : Audio Video Interleave
File size : 744 MiB
Duration : 1h 42mn
Overall bit rate : 1 017 Kbps
Writing application : VirtualDubMod 1.5.4.1 (build 2178/release)
Writing library : VirtualDubMod build 2178/release

Video
ID : 0
Format : MPEG-4 Visual
Format profile : Advanced Simple@L5
Format settings, BVOP : 1
Format settings, QPel : No
Format settings, GMC : No warppoints
Format settings, Matrix : Custom
Codec ID : XVID
Codec ID/Hint : XviD
Duration : 1h 42mn
Bit rate : 882 Kbps
Width : 640 pixels
Height : 368 pixels
Display aspect ratio : 16:9
Frame rate : 25.000 fps
Color space : YUV
Chroma subsampling : 4:2:0
Bit depth : 8 bits
Scan type : Progressive
Compression mode : Lossy
Bits/(Pixel*Frame) : 0.150
Stream size : 645 MiB (87%)
Writing library : XviD 1.2.1 (UTC 2008-12-04)

Audio
ID : 1
Format : MPEG Audio
Format version : Version 1
Format profile : Layer 3
Mode : Joint stereo
Codec ID : 55
Codec ID/Hint : MP3
Duration : 1h 42mn
Bit rate mode : Constant
Bit rate : 128 Kbps
Channel(s) : 2 channels
Sampling rate : 48.0 KHz
Compression mode : Lossy
Stream size : 93.6 MiB (13%)
Alignment : Aligned on interleaves
Interleave, duration : 80 ms (2.00 video frames)
Interleave, preload duration : 504 ms
Writing library : LAME3.99r
Encoding settings : -m j -V 4 -q 2 -lowpass 17 -b 128



Скачать Путешествие.во.влюбленность.(Евгений.Лунгин).[2007.лирическая.комедия.мелодрама.DVDRip].torrent без регистрации
Золото ЗОЛОТАЯ РАЗДАЧА! СКАЧАННОЕ НЕ ЗАСЧИТЫВАЕТСЯ! Золото
Дата: Зарегистрирован   [ Тип: внутренний ] Как тут cкачать?
MAGNET ссылка
MAGNET ссылка


Скачать .torrent

29 KB

Статус: проверено DHT
Скачан: торрент - 130 раз, раздача полностью - 25 раз
Размер: 744 MB
Оценка:  5 (Голосов: 1)
Поблагодарили: 1
Поделиться ссылкой на эту раздачу с друзьями:
В контактеFacebookОдноклассникиTwitterLivejournalМой МирLiveinternet
 

 
Показать сообщения:    


Вы не можете начинать темы
Вы не можете отвечать на сообщения
Вы не можете редактировать свои сообщения
Вы не можете удалять свои сообщения
Вы не можете голосовать в опросах
Вы не можете прикреплять файлы к сообщениям
Вы можете скачивать файлы