Loading...
Error

Скачать Настоящая Маккой / The Real McCoy (Russell Mulcahy / Рассел Малкэхи) [1993, боевик, триллер, DVDRip] [MVO] + 4x[AVO] торрент без регистрации

 
Статистика раздачи
Размер:  2,16 GB   |    Скачан:  138 раз
Сидов:  1  [  0 KB/s  ]  
 
Автор Сообщение

leon030982

[] 

Настоящая Маккой / The Real McCoy
Год выпуска: 1993
Страна: США
Жанр: боевик, триллер
Продолжительность: 01:45:04
Перевод: Профессиональный (многоголосый закадровый)
Перевод: Авторский (одноголосый закадровый) Гаврилов
Перевод: Авторский (одноголосый закадровый) Володарский
Перевод: Авторский (одноголосый закадровый) Горчаков
Перевод: Авторский (одноголосый закадровый) Живов
Cубтитры: русские - отдельно
Оригинальная аудиодорожка: английский - отдельно

Режиссер: Russell Mulcahy / Рассел Малкэхи

В ролях: Ким Бэсинджер, Вэл Килмер, Теренс Стэмп, Гейлард Сартейн, Зэк Инглиш, Рейнор Шайни, Дебора Хобарт и др.

Описание: Молодая очаровательная женщина Кэрин МакКой была схвачена, когда грабила банк. Не впервые она совершала подобное преступление… Отсидев положенный срок, Кэрин вышла на свободу с желанием начать новую жизнь вместе со своим маленьким сыном.
Однако кое-кому не давали покоя ее уникальные способности удачно проворачивать криминальные операции по взлому неприступных финансовых крепостей. И нашлись мастера шантажа, похитившие сына Кэрин, чтобы заставить ее пойти на новое дело, на очередное ограбление очередного банка…




Качество видео: DVDRip(Исх. DVD5)
Формат видео: AVI
Видео кодек: XviD
Аудио кодек: AC3
Видео: 720x368 (1.96:1), 23.976 fps, XviD build 50 ~1524 kbps avg, 0.24 bit/pixel
Аудио: 48 kHz, AC3 Dolby Digital, 3/2 (L,C,R,l,r) + LFE ch, ~448 kbps Многоголосый
Аудио: 48 kHz, AC3 Dolby Digital, 2/0 (L,R) ch, ~192.00 kbps avg Гаврилов - отдельно
Аудио: 48 kHz, AC3 Dolby Digital, 2/0 (L,R) ch, ~192.00 kbps avg Володарский - отдельно
Аудио: 48 kHz, AC3 Dolby Digital, 2/0 (L,R) ch, ~192.00 kbps avg Горчаков - отдельно
Аудио: 48 kHz, AC3 Dolby Digital, 2/0 (L,R) ch, ~192.00 kbps avg Живов - отдельно
Аудио: 48 kHz, AC3 Dolby Digital, 2/0 (L,R) ch, ~192.00 kbps avg Английский - отдельно
Формат субтитров: softsub (SRT)
File: Nastoyashaya Makkoy.chopper887.avi
Title: Nastoyashaya Makkoy.chopper887
Author: chopper887
Filesize: 1490.77 Mb ( 1 563 183 104 bytes )
Play length: 01:45:10.971 (151312 frames)
Subtitles: rus (SubRip format)
Video: 720x368 (1.96:1), 23.976 fps, XviD build 50 ~1524 kbps avg, 0.24 bit/pixel
Audio: 48 kHz, AC3 Dolby Digital, 3/2 (L,C,R,l,r) + LFE ch, ~448 kbps
General
Complete name : D:\Nastoyashaya Makkoy.chopper887\Nastoyashaya Makkoy.chopper887.avi
Format : AVI
Format/Info : Audio Video Interleave
File size : 1.46 GiB
Duration : 1h 45mn
Overall bit rate : 1 982 Kbps
Movie name : Nastoyashaya Makkoy.chopper887
Director : chopper887
Writing application : VirtualDubMod 1.5.10.3 | www.virtualdub-fr.org || (build 2550/release)
Video
ID : 0
Format : MPEG-4 Visual
Format profile : Advanced Simple@L5
Format settings, BVOP : Yes
Format settings, QPel : No
Format settings, GMC : No warppoints
Format settings, Matrix : Custom
Codec ID : XVID
Codec ID/Hint : XviD
Duration : 1h 45mn
Bit rate : 1 524 Kbps
Width : 720 pixels
Height : 368 pixels
Display aspect ratio : 1.957
Frame rate : 23.976 fps
Color space : YUV
Chroma subsampling : 4:2:0
Bit depth : 8 bits
Scan type : Progressive
Compression mode : Lossy
Bits/(Pixel*Frame) : 0.240
Stream size : 1.12 GiB (77%)
Writing library : XviD 1.2.1 (UTC 2008-12-04)
Audio
ID : 1
Format : AC-3
Format/Info : Audio Coding 3
Mode extension : CM (complete main)
Codec ID : 2000
Duration : 1h 45mn
Bit rate mode : Constant
Bit rate : 448 Kbps
Channel(s) : 6 channels
Channel positions : Front: L C R, Side: L R, LFE
Sampling rate : 48.0 KHz
Bit depth : 16 bits
Compression mode : Lossy
Stream size : 337 MiB (23%)
Alignment : Split accross interleaves
Interleave, duration : 42 ms (1.00 video frame)
Interleave, preload duration : 500 ms



Скачать Настоящая.Маккой.The.Real.McCoy.(Russell.Mulcahy.Рассел.Малкэхи).[1993.боевик.триллер.DVDRip].[MVO].+.4x[AVO].torrent без регистрации
Золото ЗОЛОТАЯ РАЗДАЧА! СКАЧАННОЕ НЕ ЗАСЧИТЫВАЕТСЯ! Золото
Дата: Зарегистрирован   [ Тип: внутренний ] Как тут cкачать?
MAGNET ссылка
MAGNET ссылка


Скачать .torrent

12 KB

Статус: проверено DHT
Скачан: торрент - 138 раз, раздача полностью - 8 раз
Размер: 2,16 GB
Оценка:  5 (Голосов: 1)
Поблагодарили: 3
Поделиться ссылкой на эту раздачу с друзьями:
В контактеFacebookОдноклассникиTwitterLivejournalМой МирLiveinternet
 

 
Показать сообщения:    


Вы не можете начинать темы
Вы не можете отвечать на сообщения
Вы не можете редактировать свои сообщения
Вы не можете удалять свои сообщения
Вы не можете голосовать в опросах
Вы не можете прикреплять файлы к сообщениям
Вы можете скачивать файлы