Loading...
Error

Скачать Альбино аллигатор / Albino Alligator (Кевин Спэйси / Kevin Spacey) [1996, Криминал, триллер, драма, BDRip] [MVO] торрент без регистрации

 
Статистика раздачи
Размер:  1,46 GB   |    Скачан:  128 раз
Сидов:  1  [  0 KB/s  ]  
 
Автор Сообщение

leon030982

[] 

Альбино аллигатор
Albino Alligator
Страна: США, Франция
Жанр: Криминал, триллер, драма
Год выпуска: 1996
Продолжительность: 01:34:04
Перевод: Профессиональный (многоголосый закадровый)
Cубтитры: нет

Режиссер: Кевин Спэйси / Kevin Spacey
В ролях:
Мэтт Диллон
Фэй Данауэй
Гэри Синиз
Уильям Фихтнер
Вигго Мортенсен
Джон Спенсер
Скит Ульрих
Фрэнки Фэйзон
Мелинда МакГроу
М. Эммет Уолш

Описание
Не каждый может стать героем. Но жертвами могут оказаться все. Идеально задуманное преступление не удалось. Несколько преступников скрываются от погони в маленьком подвальном кабачке. Все посетители взяты в заложники. Полиция блокирует единственный выход.
Ни полиция, ни бандиты не собираются уступать. Один из преступников вспоминает про то, как стая аллигаторов использует своего собрата-альбиноса в качестве приманки для конкурентов. Кто станет этой жертвой? И случайно ли преступники оказались в западне?



Качество видео: BDRip
Исходник: Albino.Alligator.1996.1080p.BD-Remux.Rus.Eng.HDCLUB
Формат видео: AVI
Видео: XviD, 720x304 (2,35:1), 1989 kbps, 23,976 fps
Аудио: AC-3, 2ch, 224 kbps, 48 kHz
Общее
Полное имя : H:\Albino.Alligator (1996) BDRip.cw.avi
Формат : AVI
Формат/Информация : Audio Video Interleave
Размер файла : 1,46 Гбайт
Продолжительность : 1 ч. 34 м.
Общий поток : 2222 Кбит/сек
Программа кодирования : VirtualDubModRus 1.5.10.2 (build 2542/release)
Библиотека кодирования : VirtualDubMod build 2542/release
Примечание : CW
Видео
Идентификатор : 0
Формат : MPEG-4 Visual
Профиль формата : Advanced Simple@L5
Параметр BVOP формата : 1
Параметр QPel формата : Нет
Параметр GMC формата : Без точки перехода
Параметр матрицы формата : Выборочная
Идентификатор кодека : XVID
Идентификатор кодека/Подсказка : XviD
Продолжительность : 1 ч. 34 м.
Битрейт : 1989 Кбит/сек
Ширина : 720 пикселей
Высота : 304 пикселя
Соотношение сторон : 2,35:1
Частота кадров : 23,976 кадра/сек
Цветовое пространство : YUV
Субдискретизация насыщенности : 4:2:0
Битовая глубина : 8 бит
Тип развёртки : Прогрессивная
Метод сжатия : С потерями
Бит/(Пиксели*Кадры) : 0.379
Размер потока : 1,31 Гбайт (89%)
Библиотека кодирования : XviD 1.2.1 (UTC 2008-12-04)
Аудио
Идентификатор : 1
Формат : AC-3
Формат/Информация : Audio Coding 3
Расширение режима : CM (complete main)
Параметр Endianness формата : Big
Идентификатор кодека : 2000
Продолжительность : 1 ч. 34 м.
Вид битрейта : Постоянный
Битрейт : 224 Кбит/сек
Каналы : 2 канала
Расположение каналов : Front: L R
Частота : 48,0 КГц
Битовая глубина : 16 бит
Метод сжатия : С потерями
Размер потока : 151 Мбайт (10%)
Выравнивание : Разделение по промежуткам
Продолжительность промежутка : 42 мс. (1,00 видеокадр)
Время предзагрузки промежутка : 500 мс.



Скачать Альбино.аллигатор.Albino.Alligator.(Кевин.Спэйси.Kevin.Spacey).[1996.Криминал.триллер.драма.BDRip].[MVO].torrent без регистрации
Золото ЗОЛОТАЯ РАЗДАЧА! СКАЧАННОЕ НЕ ЗАСЧИТЫВАЕТСЯ! Золото
Дата: Зарегистрирован   [ Тип: внутренний ] Как тут cкачать?
MAGNET ссылка
MAGNET ссылка


Скачать .torrent

15 KB

Статус: проверено DHT
Скачан: торрент - 128 раз, раздача полностью - 4 раз
Размер: 1,46 GB
Оценка:  - (Голосов: 0)
Поблагодарили: 1
Поделиться ссылкой на эту раздачу с друзьями:
В контактеFacebookОдноклассникиTwitterLivejournalМой МирLiveinternet
 

 
Показать сообщения:    


Вы не можете начинать темы
Вы не можете отвечать на сообщения
Вы не можете редактировать свои сообщения
Вы не можете удалять свои сообщения
Вы не можете голосовать в опросах
Вы не можете прикреплять файлы к сообщениям
Вы можете скачивать файлы