Loading...
Error

Скачать Не отступать и не сдаваться / No retreat, no surrender / Тигр каратэ / Karate tiger (Кори Юэнь / Corey Yuen) [1986 г., боевик, боевые искусства, DVDRip] 2x[DVO] торрент без регистрации

 
Статистика раздачи
Размер:  1,37 GB   |    Скачан:  191 раз
Сидов:  1  [  0 KB/s  ]  
 
Автор Сообщение

leon030982

[] 

Не отступать и не сдаваться / No retreat, no surrender / Тигр каратэ / Karate tiger
Год выпуска: 1986
Страна: США-Гонконг
Жанр: боевик, боевые искусства
Продолжительность: 01:34:06
Перевод 1: Профессиональный (двухголосый закадровый) СТС
Перевод 2: Профессиональный (двухголосый закадровый) НТВ+

Режиссер: Кори Юэнь / Corey Yuen

В ролях: Жан-Клод Ван Дамм, Курт МакКинни, Кент Липхам, Питер Каннингем, Дж.У.Фейлс, Кэти Силено, Ким Тай Чун, Рон Понел, Дейл Джейкоби, Питер Каннингем, Тимоти Д. Бэйкер, Глория Марзиано, Джон Вэнс, Фарид Панахи, Том Харрис, Джон Эндес, Марк Захаратос, Ти Мартинез, Боб Джонен

Описание: Джейсон Стиллвелл, ярый поклонник Брюса Ли, всегда мечтал обучаться у своего кумира единоборствам. За небольшой период времени он достигает серьезных успехов. И теперь Джейсон должен использовать все свои новые навыки, чтобы спасти Сиэтл от преступного синдиката, главарем которого является чрезвычайно опасный бандит Иван…

Сэмпл: http://multi-up.com/735324
Рип от
Качество видео: DVDRip
Формат файла: AVI
Видео: 704x496, 25.000 fps, XviD MPEG-4, 1817 kbps, 0.23 bit/pixel
Аудио 1: 48 kHz, MP3, 2 ch, 128 kbps [СТС]
Аудио 2: 48 kHz, MP3, 2 ch, 128 kbps [НТВ+]
General
Format : AVI
Format/Info : Audio Video Interleave
File size : 1.37 GiB
Duration : 1h 34mn
Overall bit rate : 2 088 Kbps
Writing application : VirtualDubModRus 1.5.10.2 (build 2542/release)
Writing library : VirtualDubMod build 2542/release
Video
ID : 0
Format : MPEG-4 Visual
Format profile : Advanced Simple@L5
Format settings, BVOP : Yes
Format settings, QPel : No
Format settings, GMC : No warppoints
Format settings, Matrix : Custom
Codec ID : XVID
Codec ID/Hint : XviD
Duration : 1h 34mn
Bit rate : 1 817 Kbps
Width : 704 pixels
Height : 496 pixels
Display aspect ratio : 1.419
Frame rate : 25.000 fps
Color space : YUV
Chroma subsampling : 4:2:0
Bit depth : 8 bits
Scan type : Progressive
Bits/(Pixel*Frame) : 0.208
Stream size : 1.19 GiB (87%)
Writing library : XviD 1.2.1 (UTC 2008-12-04)
Audio #1
ID : 1
Format : MPEG Audio
Format version : Version 1
Format profile : Layer 3
Mode : Joint stereo
Codec ID : 55
Codec ID/Hint : MP3
Duration : 1h 34mn
Bit rate mode : Constant
Bit rate : 128 Kbps
Channel(s) : 2 channels
Sampling rate : 48.0 KHz
Stream size : 86.2 MiB (6%)
Alignment : Aligned on interleaves
Interleave, duration : 40 ms (1.00 video frame)
Interleave, preload duration : 504 ms
Audio #2
ID : 2
Format : MPEG Audio
Format version : Version 1
Format profile : Layer 3
Mode : Joint stereo
Codec ID : 55
Codec ID/Hint : MP3
Duration : 1h 34mn
Bit rate mode : Constant
Bit rate : 128 Kbps
Channel(s) : 2 channels
Sampling rate : 48.0 KHz
Stream size : 86.2 MiB (6%)
Alignment : Aligned on interleaves
Interleave, duration : 40 ms (1.00 video frame)
Interleave, preload duration : 504 ms



Скачать Не.отступать.и.не.сдаваться.No.retreat.no.surrender.Тигр.каратэ.Karate.tiger.(Кори.Юэнь.Corey.Yuen).[1986.г.боевик.боевые.искусства.DVDRip].2x[DVO].torrent без регистрации
Золото ЗОЛОТАЯ РАЗДАЧА! СКАЧАННОЕ НЕ ЗАСЧИТЫВАЕТСЯ! Золото
Дата: Зарегистрирован   [ Тип: внутренний ] Как тут cкачать?
MAGNET ссылка
MAGNET ссылка


Скачать .torrent

14 KB

Статус: проверено DHT
Скачан: торрент - 191 раз, раздача полностью - 159 раз
Размер: 1,37 GB
Оценка:  5 (Голосов: 1)
Поблагодарили: 3
Поделиться ссылкой на эту раздачу с друзьями:
В контактеFacebookОдноклассникиTwitterLivejournalМой МирLiveinternet
 

 
Показать сообщения:    


Вы не можете начинать темы
Вы не можете отвечать на сообщения
Вы не можете редактировать свои сообщения
Вы не можете удалять свои сообщения
Вы не можете голосовать в опросах
Вы не можете прикреплять файлы к сообщениям
Вы можете скачивать файлы