Loading...
Error

Скачать Люди-тени / The Shadow Men (Тимоти Бонд / Timothy Bond) [1997, фантастика, боевик, триллер, DVDRip] [VO] торрент без регистрации

 
Статистика раздачи
Размер:  1,46 GB   |    Скачан:  141 раз
Сидов:  1  [  0 KB/s  ]  
 
Автор Сообщение

leon030982

[] 

Люди-тени / The Shadow Men
Год выпуска: 1997
Страна: США
Жанр: фантастика, боевик, триллер
Продолжительность: 01:30:25
Перевод: Одноголосый закадровый
Cубтитры: нет
Режиссер: Тимоти Бонд / Timothy Bond

В ролях: Эрик Робертс, Шерилин Фенн, Дин Стокуэлл, Брендон Райан Баррет, Эндрю Прайн, Крис МакКарти, Том Постер, Валери Свифт, Ганс Хоус, Дэвид Бове
Описание: Семья Уилсонов отправилась в горы посмотреть на закат, красоту которого отец запомнил с детства. На заправочной станции старик предупредил, что в тех местах уже давно стали происходить нехорошие вещи… Но кто будет слушать старика?По пути домой, уже глубокой ночью, огромный ослепительный шар вызвал аварию машины. Происходящее продолжала снимать любительская видеокамера. Все члены семьи живы и целёхоньки оказались у себя дома. Правда, всех их стали преследовать кошмарные сны…Представители властей, полиция помогать им отказываются, утверждая, что они видели либо секретный самолёт, либо у них «глюки». Семья обращается за помощью к учёному, дом которого напоминает настоящую крепость…

Качество видео: DVDRip
Формат видео: AVI
Видео кодек: XviD
Аудио кодек: AC3
Видео: 688x512 (1.34:1), 25 fps, XviD build 65 ~2105 kbps avg, 0.24 bit/pixel
Аудио: 48 kHz, AC3 Dolby Digital, 2/0 (L,R) ch, ~192.00 kbps avg
General
Complete name : D:\Релизы\The Shadow Men.1997.RUS.DVDRip.XviD.AC3.avi
Format : AVI
Format/Info : Audio Video Interleave
File size : 1.46 GiB
Duration : 1h 30mn
Overall bit rate : 2 307 Kbps
Writing application : VirtualDubMod 1.5.10.2 (build 2540/release)
Writing library : VirtualDubMod build 2540/release
Video
ID : 0
Format : MPEG-4 Visual
Format profile : Advanced Simple@L5
Format settings, BVOP : 1
Format settings, QPel : No
Format settings, GMC : No warppoints
Format settings, Matrix : Custom
Codec ID : XVID
Codec ID/Hint : XviD
Duration : 1h 30mn
Bit rate : 2 105 Kbps
Width : 688 pixels
Height : 512 pixels
Display aspect ratio : 4:3
Frame rate : 25.000 fps
Color space : YUV
Chroma subsampling : 4:2:0
Bit depth : 8 bits
Scan type : Progressive
Compression mode : Lossy
Bits/(Pixel*Frame) : 0.239
Stream size : 1.33 GiB (91%)
Writing library : XviD 65
Audio
ID : 1
Format : AC-3
Format/Info : Audio Coding 3
Mode extension : CM (complete main)
Format settings, Endianness : Big
Codec ID : 2000
Duration : 1h 30mn
Bit rate mode : Constant
Bit rate : 192 Kbps
Channel(s) : 2 channels
Channel positions : Front: L R
Sampling rate : 48.0 KHz
Bit depth : 16 bits
Compression mode : Lossy
Stream size : 124 MiB (8%)
Alignment : Split accross interleaves
Interleave, duration : 40 ms (1.00 video frame)
Interleave, preload duration : 500 ms



Скачать Люди-тени.The.Shadow.Men.(Тимоти.Бонд.Timothy.Bond).[1997.фантастика.боевик.триллер.DVDRip].[VO].torrent без регистрации
Золото ЗОЛОТАЯ РАЗДАЧА! СКАЧАННОЕ НЕ ЗАСЧИТЫВАЕТСЯ! Золото
Дата: Зарегистрирован   [ Тип: внутренний ] Как тут cкачать?
MAGNET ссылка
MAGNET ссылка


Скачать .torrent

15 KB

Статус: проверено DHT
Скачан: торрент - 141 раз, раздача полностью - 19 раз
Размер: 1,46 GB
Оценка:  - (Голосов: 0)
Поблагодарили: 1
Поделиться ссылкой на эту раздачу с друзьями:
В контактеFacebookОдноклассникиTwitterLivejournalМой МирLiveinternet
 

 
Показать сообщения:    


Вы не можете начинать темы
Вы не можете отвечать на сообщения
Вы не можете редактировать свои сообщения
Вы не можете удалять свои сообщения
Вы не можете голосовать в опросах
Вы не можете прикреплять файлы к сообщениям
Вы можете скачивать файлы