Loading...
Error

Скачать Ты моя радость / Ты - мое cчастье / You are My Sunshine / Neo-neun Nae / Neoneun nae unmyeong (Пак Чжин Пе) [2005, Драма, мелодрама, DVDRip] [VO] торрент без регистрации

 
Статистика раздачи
Размер:  1,37 GB   |    Скачан:  109 раз
Сидов:  1  [  0 KB/s  ]  
 
Автор Сообщение

Marsianka

[] 

Информация о фильме
Название: Ты моя радость / Ты - мое cчастье
Оригинальное название: You are My Sunshine / Neo-neun Nae / Neoneun nae unmyeong
Жанр: Драма, мелодрама
Год выпуска: 2005
Режиссер: Пак Чжин Пе / Park Jin Pyo
В ролях: Чжон До Ён / Jeon Do Yeon, Хван Чжон Мин / Hwang Jeong Min, На Мун Хи / Nah Moon Hee, Чжон Ю Сок / Jeong Yoo Seok, Со Чжу Хи / Seo Joo Hee, Юн Чже Мун / Yoon Je Moon

Описание:

Сок Чжон, работник на ферме тридцати лет, мечтает обзавестись собственной фермой, купить маме зубной протез и жениться. Но поиски жены нелегкое занятие Когда Сок Чжон уже отчаялся, он неожиданно встречает Ын Ху, легкомысленную бабочку, которая работает в местной кафешке, и по уши в нее влюбляется. Ын Ха совсем не стремится выйти замуж, но наш фермер так просто не сдается. Если бы Сок Чжон знал, чем ему выльется его упрямство



Страна: Южная Корея
Продолжительность: 02:01:52
Перевод: Любительский (Одноголосый закадровый) - D.I.M.
Cубтитры: нет

Фильм озвучен по субтитрам Templeton.

Файл
Качество видео: DVDRip
Формат видео: AVI
Видео: 720x400 (16:9), 23.976 fps, MPEG-4 Visual (XviD) ~1471 kbps avg, 0.213 bit/pixel
Аудио: MPEG Audio Layer 3, 48000Hz, stereo, 128kbps
26th Blue Dragon Awards
Победитель - Лучший режиссер (Пак Чжин Пё)
Победитель - Лучший актер (Хван Чжон Мин)
Победитель - Лучшая экранная пара (Чжон До Ён и Хван Чжон Мин)
Номинация - Лучший фильм
Номинация - Лучшая актриса (Чжон До Ён)
Номинация - Лучшая актриса второго плана (На Мун Хи)
Номинация - Лучший оригинальный (Пак Чжин Пё)

Общее
Кол-во : 277
Кол-во потоков такого типа : 1
Тип потока : General
Тип потока : Общее
Идентификатор типа потока : 0
Inform : AVI: 1,37 Гбайт, 2 ч. 1 м.
Кол-во видеопотоков : 1
Кол-во аудиопотоков : 1
Video_Format_List : MPEG-4 Visual
Video_Format_WithHint_List : MPEG-4 Visual (XviD)
Видеокодеки : XviD
Audio_Format_List : MPEG Audio
Audio_Format_WithHint_List : MPEG Audio (MP3)
Аудиокодеки : MPEG-1 Audio layer 3
Audio_Language_List : Russian
Полное имя : G:TORENTРАЗДАЧИ (РИПЫ)You Are My Sunshine.avi
Имя папки : G:TORENTРАЗДАЧИ (РИПЫ)
Имя файла : You Are My Sunshine
Расширение : avi
Формат : AVI
Формат : AVI
Формат/Информация : Audio Video Interleave
Формат/Используется в : avi
Коммерческое название : AVI
Интернет-тип носителя : video/vnd.avi
Чередующаяся : Yes
Кодек : AVI
Кодек : AVI
Кодек/Информация : Audio Video Interleave
Кодек/Используется в : avi
Размер файла : 1469607936
Размер файла : 1,37 Гбайт
Размер файла : 1 Гбайт
Размер файла : 1,4 Гбайт
Размер файла : 1,37 Гбайт
Размер файла : 1,369 Гбайт
Продолжительность : 7312013
Продолжительность : 2 ч. 1 м.
Продолжительность : 2 ч. 1 м. 52 с. 13 мс.
Продолжительность : 2 ч. 1 м.
Продолжительность : 02:01:52.013
Общий поток : 1607883
Общий поток : 1608 Кбит/сек
Размер потока : 8513179
Размер потока : 8,12 Мбайт (1%)
Размер потока : 8 Мбайт
Размер потока : 8,1 Мбайт
Размер потока : 8,12 Мбайт
Размер потока : 8,119 Мбайт
Размер потока : 8,12 Мбайт (1%)
Пропорции потока : 0.00579
Дата файла : UTC 2012-02-14 11:44:21.310
Дата файла (местная) : 2012-02-14 15:44:21.310
Дата изменения файла : UTC 2012-02-14 13:55:50.328
Дата изменения файла (местная) : 2012-02-14 17:55:50.328
Программа кодирования : VirtualDubModRus 1.5.10.2 (build 2542/release)
Библиотека кодирования : VirtualDubMod build 2542/release
Библиотека кодирования : VirtualDubMod build 2542/release

Видео
Кол-во : 193
Кол-во потоков такого типа : 1
Тип потока : Video
Тип потока : Видео
Идентификатор типа потока : 0
Inform : 1471 Кбит/сек, 720*400 (16:9), в 23,976 кадр/сек, MPEG-4 Visual (XviD) (Advanced Simple@L5) (BVOP1 / Custom Matrix)
Идентификатор : 0
Идентификатор : 0
Формат : MPEG-4 Visual
Коммерческое название : MPEG-4 Visual
Профиль формата : Advanced Simple@L5
Настройки формата : BVOP1 / Custom Matrix
Параметр BVOP формата : 1
Параметр BVOP формата : 1
Параметр QPel формата : No
Параметр QPel формата : Нет
Параметр GMC формата : 0
Параметр GMC формата : Без точки перехода
Параметр матрицы формата : Custom
Параметр матрицы формата : Выборочная
Format_Settings_Matrix_Data : 0809090A0B0A0B0C0C0B0C0D0E0D0C0E0F10100F0E101011121110101212131414131212141516171615141618191918161A1C1D1C1A1E22221E262E26343448 / 1010101111111111111112121312121313141413131514151615141517161718181716171818191A1918181B1C1D1D1C1B202428242028303028343C3440406A
Интернет-тип носителя : video/MP4V-ES
Идентификатор кодека : XVID
Идентификатор кодека/Подсказка : XviD
Кодек : XVID
Кодек : XviD
Кодек/Семейство : MPEG-4V
Кодек/Информация : XviD project
Кодек/CC : XVID
Профиль кодека : Advanced Simple@L5
Настройки кодека : BVOP / Custom Matrix
Параметр пакетного потока данных : No
Параметр BVOP кодека : Yes
Параметр QPel кодека : No
Параметр GMC кодека : 0
Параметр GMC кодека : Без точки перехода
Параметр матрицы кодека : Custom
Продолжительность : 7312013
Продолжительность : 2 ч. 1 м.
Продолжительность : 2 ч. 1 м. 52 с. 13 мс.
Продолжительность : 2 ч. 1 м.
Продолжительность : 02:01:52.013
Битрейт : 1470568
Битрейт : 1471 Кбит/сек
Ширина : 720
Ширина : 720 пикс.
Высота : 400
Высота : 400 пикс.
Соотношение пикселей : 1.000
Соотношение сторон : 1.800
Соотношение сторон : 16:9
Частота кадров : 23.976
Частота кадров : 23,976 кадр/сек
Счётчик кадров : 175313
Разрешение : 8
Разрешение : 8 бит
Колориметрия : 4:2:0
Цветовое пространство : YUV
Подвыборка цветности : 4:2:0
Битовая глубина : 8
Битовая глубина : 8 бит
Тип развёртки : Progressive
Тип развёртки : Прогрессивная
Переплетение : PPF
Переплетение : Прогрессивная
Метод сжатия : Lossy
Метод сжатия : С потерями
Бит/(Пиксели*Кадры) : 0.213
Задержка : 0
Задержка : 00:00:00.000
Размер потока : 1344102629
Размер потока : 1,25 Гбайт (91%)
Размер потока : 1 Гбайт
Размер потока : 1,3 Гбайт
Размер потока : 1,25 Гбайт
Размер потока : 1,252 Гбайт
Размер потока : 1,25 Гбайт (91%)
Пропорции потока : 0.91460
Библиотека кодирования : XviD0063
Библиотека кодирования : XviD 63
Библиотека кодирования/Имя : XviD
Библиотека кодирования/Version : 63

Аудио
Кол-во : 157
Кол-во потоков такого типа : 1
Тип потока : Audio
Тип потока : Аудио
Идентификатор типа потока : 0
Inform : Russian, 128 Кбит/сек, 48,0 КГц, 2 канала(ов), MPEG Audio (MP3) (Version 1) (Layer 3) (Joint stereo / MS Stereo)
Идентификатор : 1
Идентификатор : 1
Формат : MPEG Audio
Коммерческое название : MPEG Audio
Версия формата : Version 1
Профиль формата : Layer 3
Настройки формата : Joint stereo / MS Stereo
Режим : Joint stereo
Расширение режима : MS Stereo
Интернет-тип носителя : audio/mpeg
Идентификатор кодека : 55
Идентификатор кодека/Подсказка : MP3
Кодек : MPA1L3
Кодек : MPEG-1 Audio layer 3
Кодек/Семейство : MPEG-1
Кодек/Информация : MPEG-1 or 2 layer 3
Кодек/CC : 55
Профиль кодека : Joint stereo
Продолжительность : 7312008
Продолжительность : 2 ч. 1 м.
Продолжительность : 2 ч. 1 м. 52 с. 8 мс.
Продолжительность : 2 ч. 1 м.
Продолжительность : 02:01:52.008
Вид битрейта : CBR
Вид битрейта : Постоянный
Битрейт : 128000
Битрейт : 128 Кбит/сек
Канал(ы) : 2
Канал(ы) : 2 канала(ов)
Частота : 48000
Частота : 48,0 КГц
Количество образцов : 350976384
Метод сжатия : Lossy
Метод сжатия : С потерями
Задержка : 0
Задержка : 00:00:00.000
Задержка в оригинале : Container
Задержка в оригинале : Контейнер
Задержка видео : 0
Задержка видео : 0
Размер потока : 116992128
Размер потока : 112 Мбайт (8%)
Размер потока : 112 Мбайт
Размер потока : 112 Мбайт
Размер потока : 112 Мбайт
Размер потока : 111,6 Мбайт
Размер потока : 112 Мбайт (8%)
Пропорции потока : 0.07961
Выравнивание : Aligned
Выравнивание : Соединение по промежуткам
Продолжительность промежутка : 1.00
Продолжительность промежутка : 42
Продолжительность промежутка : 42 мс. (1,00 видеокадр)
Время предзагрузки промежутка : 504
Время предзагрузки промежутка : 504 ms
Библиотека кодирования : LAME3.98.2
Библиотека кодирования : LAME3.98.2
Язык : ru
Язык : Russian
Язык : Russian
Язык : ru
Язык : rus
Язык : ru







Скачать Ты.моя.радость.Ты.-.мое.cчастье.You.are.My.Sunshine.Neo-neun.Nae.Neoneun.nae.unmyeong.(Пак.Чжин.Пе).[2005.Драма.мелодрама.DVDRip].[VO].torrent без регистрации
Золото ЗОЛОТАЯ РАЗДАЧА! СКАЧАННОЕ НЕ ЗАСЧИТЫВАЕТСЯ! Золото
Дата: Зарегистрирован   [ Тип: внутренний ] Как тут cкачать?
MAGNET ссылка
MAGNET ссылка


Скачать .torrent

219 KB

Статус: проверено DHT
Скачан: торрент - 109 раз, раздача полностью - 91 раз
Размер: 1,37 GB
Оценка:  - (Голосов: 0)
Поблагодарили: 1
Поделиться ссылкой на эту раздачу с друзьями:
В контактеFacebookОдноклассникиTwitterLivejournalМой МирLiveinternet
 

 
Показать сообщения:    


Вы не можете начинать темы
Вы не можете отвечать на сообщения
Вы не можете редактировать свои сообщения
Вы не можете удалять свои сообщения
Вы не можете голосовать в опросах
Вы не можете прикреплять файлы к сообщениям
Вы можете скачивать файлы