Loading...
Error

Скачать Бросок кобры / G.I. Joe: The Rise of Cobra (Стивен Соммерс) [2009, фантастика, боевик, триллер, приключения, BDRip-AVC] [Dub] [Rus]+[Ukr]+[AVO (А.Гаврилов)] торрент без регистрации

 
Статистика раздачи
Размер:  3,96 GB   |    Скачан:  211 раз
Сидов:  1  [  0 KB/s  ]  
 
Автор Сообщение

МихаНЕзатор

[] 

Информация о фильме
Название: Бросок кобры
Оригинальное название: G.I. Joe: The Rise of Cobra
Год выхода: 2009
Жанр: Фантастика, боевик, триллер, приключения
Режиссер: Стивен Соммерс / Stephen Sommers
В ролях: Чаннинг Татум, Марлон Уайанс, Рэй Парк, Сиенна Миллер, Рейчел Николс, Джозеф Гордон-Левитт, Деннис Куэйд, Джонатан Прайс, Бён Хон Ли, Каролина Куркова

О фильме: Базирующееся в Европе высокотехнологичное международное военное подразделение, известное как G.I. Joe, бросает вызов зловещей корпорации, руководимой знаменитым оружейным бароном.

Страна: США, Чехия
Продолжительность: 01:57:59
Перевод: Дублированный / Авторский одноголосый (А.Гаврилов, Б.Лизнев)
Субтитры: Русские, английские
Дата релиза: 21.07.2012

Файл
Кодек: H.264
Качество: BDRip (AVC) (Blu-Ray (1080p))
Видео: MPEG-4 AVC, 2562 Кбит/с, 1024x426
Звук: Русский (AC3, 6 ch, 448 Кбит/с), украинский (AC3, 6 ch, 448 Кбит/с), английский (AC3, 6 ch, 448 Кбит/с)

Общее
Уникальный идентификатор : 199130434487840004716834150646803661889 (0x95CF206CEA020AF79BA1CC61C6150441)
Полное имя : G:1Brosok.kobry.2009.x264.BDRip.(AVC).ExKinoRay.mkv
Формат : Matroska
Версия формата : Version 2
Размер файла : 3,96 Гбайт
Продолжительность : 1 ч. 57 м.
Общий поток : 4801 Кбит/сек
Название фильма : Brosok.kobry.2009.x264.BDRip.(AVC).ExKinoRay
Дата кодирования : UTC 2012-07-20 10:05:24
Программа кодирования : mkvmerge v4.0.0 ('The Stars were mine') сборка от Jun 6 2010 16:18:42
Библиотека кодирования : libebml v1.0.0 + libmatroska v1.0.0

Видео
Идентификатор : 1
Формат : AVC
Формат/Информация : Advanced Video Codec
Профиль формата : High@L4.1
Параметр CABAC формата : Да
Параметр ReFrames формата : 8 кадров
Идентификатор кодека : V_MPEG4/ISO/AVC
Продолжительность : 1 ч. 57 м.
Битрейт : 2562 Кбит/сек
Ширина : 1024 пикселя
Высота : 426 пикселей
Соотношение сторон : 2,40:1
Частота кадров : 23,976 кадра/сек
Цветовое пространство : YUV
Субдискретизация насыщенности : 4:2:0
Битовая глубина : 8 бит
Тип развёртки : Прогрессивная
Бит/(Пиксели*Кадры) : 0.245
Размер потока : 2,03 Гбайт (51%)
Заголовок : Rip by Enigma-Vladislav71
Библиотека кодирования : x264 core 92 r1510 33d382a
Настройки программы : cabac=1 / ref=8 / deblock=1:-2:-2 / analyse=0x3:0x133 / me=umh / subme=10 / psy=1 / psy_rd=1.00:0.00 / mixed_ref=1 / me_range=48 / chroma_me=1 / trellis=2 / 8x8dct=1 / cqm=0 / deadzone=21,11 / fast_pskip=0 / chroma_qp_offset=-2 / threads=3 / sliced_threads=0 / nr=0 / decimate=1 / interlaced=0 / constrained_intra=0 / bframes=8 / b_pyramid=2 / b_adapt=2 / b_bias=0 / direct=3 / wpredb=1 / wpredp=2 / keyint=240 / keyint_min=23 / scenecut=40 / intra_refresh=0 / rc=2pass / mbtree=0 / bitrate=2562 / ratetol=1.0 / qcomp=0.60 / qpmin=10 / qpmax=51 / qpstep=4 / cplxblur=20.0 / qblur=0.5 / ip_ratio=1.40 / pb_ratio=1.30 / aq=1:1.00
Язык : English
Default : Да
Forced : Нет

Аудио #1
Идентификатор : 2
Формат : AC-3
Формат/Информация : Audio Coding 3
Расширение режима : CM (complete main)
Идентификатор кодека : A_AC3
Продолжительность : 1 ч. 57 м.
Вид битрейта : Постоянный
Битрейт : 448 Кбит/сек
Каналы : 6 каналов
Расположение каналов : Front: L C R, Side: L R, LFE
Частота : 48,0 КГц
Битовая глубина : 16 бит
Метод сжатия : С потерями
Размер потока : 378 Мбайт (9%)
Заголовок : Дублированный
Язык : Russian
Default : Да
Forced : Нет

Аудио #2
Идентификатор : 3
Формат : AC-3
Формат/Информация : Audio Coding 3
Расширение режима : CM (complete main)
Идентификатор кодека : A_AC3
Продолжительность : 1 ч. 57 м.
Вид битрейта : Постоянный
Битрейт : 448 Кбит/сек
Каналы : 6 каналов
Расположение каналов : Front: L C R, Side: L R, LFE
Частота : 48,0 КГц
Битовая глубина : 16 бит
Метод сжатия : С потерями
Размер потока : 378 Мбайт (9%)
Заголовок : Гаврилов
Язык : Russian
Default : Нет
Forced : Нет

Аудио #3
Идентификатор : 4
Формат : AC-3
Формат/Информация : Audio Coding 3
Расширение режима : CM (complete main)
Идентификатор кодека : A_AC3
Продолжительность : 1 ч. 57 м.
Вид битрейта : Постоянный
Битрейт : 448 Кбит/сек
Каналы : 6 каналов
Расположение каналов : Front: L C R, Side: L R, LFE
Частота : 48,0 КГц
Битовая глубина : 16 бит
Метод сжатия : С потерями
Размер потока : 378 Мбайт (9%)
Заголовок : Лизнев
Язык : Russian
Default : Нет
Forced : Нет

Аудио #4
Идентификатор : 5
Формат : AC-3
Формат/Информация : Audio Coding 3
Расширение режима : CM (complete main)
Идентификатор кодека : A_AC3
Продолжительность : 1 ч. 57 м.
Вид битрейта : Постоянный
Битрейт : 448 Кбит/сек
Каналы : 6 каналов
Расположение каналов : Front: L C R, Side: L R, LFE
Частота : 48,0 КГц
Битовая глубина : 16 бит
Метод сжатия : С потерями
Размер потока : 378 Мбайт (9%)
Заголовок : украинский
Язык : Ukrainian
Default : Нет
Forced : Нет

Аудио #5
Идентификатор : 6
Формат : AC-3
Формат/Информация : Audio Coding 3
Расширение режима : CM (complete main)
Идентификатор кодека : A_AC3
Продолжительность : 1 ч. 57 м.
Вид битрейта : Постоянный
Битрейт : 448 Кбит/сек
Каналы : 6 каналов
Расположение каналов : Front: L C R, Side: L R, LFE
Частота : 48,0 КГц
Битовая глубина : 16 бит
Метод сжатия : С потерями
Размер потока : 378 Мбайт (9%)
Заголовок : английский
Язык : English
Default : Нет
Forced : Нет

Текст #1
Идентификатор : 7
Формат : UTF-8
Идентификатор кодека : S_TEXT/UTF8
Идентификатор кодека/Информация : UTF-8 Plain Text
Язык : Russian
Default : Да
Forced : Нет

Текст #2
Идентификатор : 8
Формат : UTF-8
Идентификатор кодека : S_TEXT/UTF8
Идентификатор кодека/Информация : UTF-8 Plain Text
Язык : English
Default : Нет
Forced : Нет

Меню
00:00:00.000 : en:Chapter 01
00:06:07.700 : en:Chapter 02
00:13:38.943 : en:Chapter 03
00:20:15.005 : en:Chapter 04
00:24:18.081 : en:Chapter 05
00:28:20.615 : en:Chapter 06
00:33:14.575 : en:Chapter 07
00:40:58.122 : en:Chapter 08
00:47:06.031 : en:Chapter 09
00:51:19.034 : en:Chapter 10
00:54:17.837 : en:Chapter 11
01:00:58.571 : en:Chapter 12
01:05:46.400 : en:Chapter 13
01:12:48.489 : en:Chapter 14
01:18:54.104 : en:Chapter 15
01:24:13.298 : en:Chapter 16
01:29:21.981 : en:Chapter 17
01:38:15.472 : en:Chapter 18
01:43:36.418 : en:Chapter 19
01:49:06.581 : en:Chapter 20


Релиз от:
Авторы релиза:



Скачать Бросок.кобры.G.I.Joe.The.Rise.of.Cobra.(Стивен.Соммерс).[2009.фантастика.боевик.триллер.приключения.BDRip-AVC].[Dub].[Rus]+[Ukr]+[AVO.(А.Гаврилов)].torrent без регистрации
Золото ЗОЛОТАЯ РАЗДАЧА! СКАЧАННОЕ НЕ ЗАСЧИТЫВАЕТСЯ! Золото
Дата: Зарегистрирован   [ Тип: внутренний ] Как тут cкачать?
MAGNET ссылка
MAGNET ссылка


Скачать .torrent

20 KB

Статус: проверено DHT
Скачан: торрент - 211 раз, раздача полностью - 799 раз
Размер: 3,96 GB
Оценка:  5 (Голосов: 1)
Поблагодарили: 4
Поделиться ссылкой на эту раздачу с друзьями:
В контактеFacebookОдноклассникиTwitterLivejournalМой МирLiveinternet
 

 
Показать сообщения:    


Вы не можете начинать темы
Вы не можете отвечать на сообщения
Вы не можете редактировать свои сообщения
Вы не можете удалять свои сообщения
Вы не можете голосовать в опросах
Вы не можете прикреплять файлы к сообщениям
Вы можете скачивать файлы