Loading...
Error

Скачать Капитан Берлин против Гитлера / Captain Berlin versus Hitler (Йорг Буттгерайт / Jorg Buttgereit) [2009, Трэш, Комедия, DVDRip] [VO] (Horror Maker) торрент без регистрации

 
Статистика раздачи
Размер:  1,35 GB   |    Скачан:  118 раз
Сидов:  1  [  0 KB/s  ]  
 
Автор Сообщение

leon030982

[] 

Капитан Берлин против Гитлера / Captain Berlin versus Hitler

Страна: Германия
Жанр: Трэш, Комедия
Год выпуска: 2009
Продолжительность: 01:14:32
Перевод: Одноголосый Horror Maker
Cубтитры: нет

Режиссер: Йорг Буттгерайт / Jorg Buttgereit

В ролях: Адольфо Ассор, Йург Плюсс, Сандра Штеффль, Клаудия Штайгер и др.

Описание: Мозг Гитлера не был уничтожен в 1945 году. Сумасшедший учёный, преданный идеям Третьего Рейха, сохранил мозг Фюрера, чтобы воскресить его в наши дни. Предотвратить злодеяния может только немецкий супермен - Капитан Берлин. Но ему придётся столкнуться не только с модифицированной реинкарнацией Адольфа Гитлера, но и с кровожадной Фрау Ильзой и самим Дракулой!

Доп. информация: Поклонникам творчества Йорга Буттгерайта образца 1987-1993 годов не стоит ожидать чего-то конкретного от этого фильма, т.к. эта лента снята в совершенно иной манере.

РЕЛИЗ EXPLOCINE
При использовании раздачи обязательна ссылка на автора!

Сэмпл: http://multi-up.com/736377

Качество видео: DVDRip
Формат видео: AVI
Видео: 720х416, 25.000, 16:9 ratio, XviD 2 387 Kbps, 0.319 bit/pixel
Аудио: 48.0 KHz, АС-3 Audio, 2 channels 102 MiB, 192 Kbps
General
Complete name : Captain Berlin vs Hitler.avi
Format : AVI
Format/Info : Audio Video Interleave
File size : 1.35 GiB
Duration : 1h 14mn
Overall bit rate : 2 585 Kbps
Writing application : VirtualDubMod 1.5.4.1 (build 2178/release)
Writing library : VirtualDubMod build 2178/release
Video
ID : 0
Format : MPEG-4 Visual
Format profile : Advanced Simple@L5
Format settings, BVOP : No
Format settings, QPel : No
Format settings, GMC : No warppoints
Format settings, Matrix : Custom
Codec ID : XVID
Codec ID/Hint : XviD
Duration : 1h 14mn
Bit rate : 2 387 Kbps
Width : 720 pixels
Height : 416 pixels
Display aspect ratio : 16:9
Frame rate : 25.000 fps
Color space : YUV
Chroma subsampling : 4:2:0
Bit depth : 8 bits
Scan type : Progressive
Compression mode : Lossy
Bits/(Pixel*Frame) : 0.319
Stream size : 1.24 GiB (92%)
Writing library : XviD 58
Audio
ID : 1
Format : AC-3
Format/Info : Audio Coding 3
Mode extension : CM (complete main)
Codec ID : 2000
Duration : 1h 14mn
Bit rate mode : Constant
Bit rate : 192 Kbps
Channel(s) : 2 channels
Channel positions : Front: L R
Sampling rate : 48.0 KHz
Bit depth : 16 bits
Compression mode : Lossy
Stream size : 102 MiB (7%)
Alignment : Aligned on interleaves
Interleave, duration : 96 ms (2.40 video frames)
Interleave, preload duration : 96 ms
Language : Russian



Скачать Капитан.Берлин.против.Гитлера.Captain.Berlin.versus.Hitler.(Йорг.Буттгерайт.Jorg.Buttgereit).[2009.Трэш.Комедия.DVDRip].[VO].(Horror.Maker).torrent без регистрации
Золото ЗОЛОТАЯ РАЗДАЧА! СКАЧАННОЕ НЕ ЗАСЧИТЫВАЕТСЯ! Золото
Дата: Зарегистрирован   [ Тип: внутренний ] Как тут cкачать?
MAGNET ссылка
MAGNET ссылка


Скачать .torrent

14 KB

Статус: проверено DHT
Скачан: торрент - 118 раз, раздача полностью - 74 раз
Размер: 1,35 GB
Оценка:  - (Голосов: 0)
Поблагодарили: 1
Поделиться ссылкой на эту раздачу с друзьями:
В контактеFacebookОдноклассникиTwitterLivejournalМой МирLiveinternet
 

 
Показать сообщения:    


Вы не можете начинать темы
Вы не можете отвечать на сообщения
Вы не можете редактировать свои сообщения
Вы не можете удалять свои сообщения
Вы не можете голосовать в опросах
Вы не можете прикреплять файлы к сообщениям
Вы можете скачивать файлы