Loading...
Error

Скачать Мясник / The Butcher (Ким Чин-Вон / Kim Jin-Won) [2007, ужасы, DVDRip] [VO] [den904] торрент без регистрации

 
Статистика раздачи
Размер:  767 MB   |    Скачан:  113 раз
Сидов:  1  [  0 KB/s  ]  
 
Автор Сообщение

leon030982

[] 

Мясник / The Butcher
Страна: Южная Корея
Жанр: ужасы
Год выпуска: 2007
Продолжительность: 01:14:57

Перевод: одноголосый закадровый den904

Перевод на русский: vragsin
Cубтитры: нет

Режиссер: Ким Чин-Вон / Kim Jin-Won

В ролях: Ким Сон-Иль
Ю Дон-Хун

Описание: "Мясник" снят как документальный снафф, показывающий происходящее с двух точек зрения: с позиции жертв и с позиции создателей. Главные герои - это "Режиссер", его "Ассистент" и Сумасшедший.
Небольшая группа людей оказывается избитой и связанной на полу грязной скотобойни, покрытой кровью. Испуганные и растерянные, они скоро узнают, какие планы у их похитителей. "Кинопродюсеры" начинают свою "творческую" работу, снимая снафф, в котором показаны жестокие, отвратительные пытки и смерти, одного за другим, героев их фильма.
Каждая сцена снята с позиции убийцы и с позиции жертвы, чтобы дать возможность полностью прочувствовать эмоциональные муки жертвы и то отвратительное глумление над плотью, которое будет совершено над их телами


Релиз группы:

Сэмпл: http://multi-up.com/736174
Качество видео: DVDRip
Формат видео: AVI
Видео: H.264/AVC Encoder, 704x384 (1.83:1),2 9.970 fps, 1098 kbps avg, 0.14 bit/pixel
Аудио: Русский, 48 kHz, MPEG Layer 3, 2 ch, 320.00 kbps avg
Format : AVI
Format/Info : Audio Video Interleave
File size : 767 MiB
Duration : 1h 14mn
Overall bit rate : 1 430 Kbps
Writing application : VirtualDubMod 1.5.10.2 (build 2540/release)
Writing library : VirtualDubMod build 2540/release
Video
ID : 0
Format : AVC
Format/Info : Advanced Video Codec
Format profile : Main@L5.1
Format settings, CABAC : Yes
Format settings, ReFrames : 2 frames
Format settings, GOP : N=1
Codec ID : H264
Duration : 1h 14mn
Bit rate : 1 098 Kbps
Width : 704 pixels
Height : 384 pixels
Display aspect ratio : 16:9
Frame rate : 29.970 fps
Color space : YUV
Chroma subsampling : 4:2:0
Bit depth : 8 bits
Scan type : Progressive
Bits/(Pixel*Frame) : 0.136
Stream size : 589 MiB (77%)
Writing library : x264 core 58 svn-736bm
Encoding settings : cabac=1 / ref=1 / deblock=1:0:0 / analyse=0x1:0x131 / me=hex / subme=5 / brdo=0 / mixed_ref=0 / me_range=16 / chroma_me=1 / trellis=1 / 8x8dct=0 / cqm=0 / deadzone=21,11 / chroma_qp_offset=0 / threads=4 / nr=0 / decimate=1 / mbaff=0 / bframes=2 / b_pyramid=0 / b_adapt=1 / b_bias=0 / direct=1 / wpredb=1 / bime=0 / keyint=250 / keyint_min=25 / scenecut=40(pre) / rc=2pass / bitrate=1098 / ratetol=1.0 / rceq='blurCplx^(1-qComp)' / qcomp=0.60 / qpmin=10 / qpmax=51 / qpstep=4 / cplxblur=20.0 / qblur=0.5 / ip_ratio=1.40 / pb_ratio=1.30
Audio
ID : 1
Format : MPEG Audio
Format version : Version 1
Format profile : Layer 3
Mode : Joint stereo
Codec ID : 55
Codec ID/Hint : MP3
Duration : 1h 14mn
Bit rate mode : Constant
Bit rate : 320 Kbps
Channel(s) : 2 channels
Sampling rate : 48.0 KHz
Compression mode : Lossy
Stream size : 172 MiB (22%)
Alignment : Aligned on interleaves
Interleave, duration : 33 ms (1.00 video frame)
Interleave, preload duration : 504 ms



Скачать Мясник.The.Butcher.(Ким.Чин-Вон.Kim.Jin-Won).[2007.ужасы.DVDRip].[VO].[den904].torrent без регистрации
Золото ЗОЛОТАЯ РАЗДАЧА! СКАЧАННОЕ НЕ ЗАСЧИТЫВАЕТСЯ! Золото
Дата: Зарегистрирован   [ Тип: внутренний ] Как тут cкачать?
MAGNET ссылка
MAGNET ссылка


Скачать .torrent

16 KB

Статус: проверено DHT
Скачан: торрент - 113 раз, раздача полностью - 1 раз
Размер: 767 MB
Оценка:  - (Голосов: 0)
Поблагодарили: 0
Поделиться ссылкой на эту раздачу с друзьями:
В контактеFacebookОдноклассникиTwitterLivejournalМой МирLiveinternet
 

 
Показать сообщения:    


Вы не можете начинать темы
Вы не можете отвечать на сообщения
Вы не можете редактировать свои сообщения
Вы не можете удалять свои сообщения
Вы не можете голосовать в опросах
Вы не можете прикреплять файлы к сообщениям
Вы можете скачивать файлы