Loading...
Error

Скачать Фил из будущего / Phil of the Future [S01-02] (Фред Сэвидж, Нил Израэл, Шон МакНамара) [2005, комедия, фантастика, SATRip, SATRip-AVC] [Dub] торрент без регистрации

Статистика раздачи
Размер:  11,38 GB   |    Скачан:  154 раза
Сидов:  1  [  0 KB/s  ]  
 
 
 
Автор Сообщение

МихаНЕзатор

[] 

Информация о фильме
Название: Фил из будущего
Оригинальное название: Phil of theFuture
Год выхода: 2005
Жанр: Комедия, фантастика
Режиссер: Фред Сэвидж, Нил Израэл, Шон МакНамара
В ролях: Рики Уллман, Элисон Мичалка, Эми Брукнер, Крэйг Энтон, Лизе Симс, Жан-Поль Ману

О фильме:
На первый взгляд, Фил обычный подросток. Но на самом деле он прибыл из далекого будущего: вместе со своей семьей он попал к нам из 2121 года! Когда они путешествовали сквозь время, корабль сломался, и им пришлось совершить экстренную посадку в нашем времени.

Приключения Фила и его семьи поистине невероятны, ведь в руках у них разнообразные фантастические приборы из будущего. Они позволяют, к примеру, делаться невидимыми, дают возможность уменьшаться в размерах или даже изменять свой внешний вид В 21 веке у Фила начинается классная жизнь, интересная и увлекательная, но здесь не его родное время. Захочет ли он вернуться назад в будущее?..

Страна: США
Продолжительность: 00:22:00
Перевод: Полное дублирование (т/к Дисней)
Русские субтитры: нет
Субтитры: Нет

Файл

Первый сезон:

Качество: SATRip
Формат: AVI
Видео кодек: XviD
Аудио кодек: MP3
Видео: MPEG4, XviD, 704x528 (4/3), 25.000 fps, 1 796 Kbps (0.193 bit/pixel)
Аудио: 48 kHz, MPEG Layer 3, 2 ch, ~128.00 kbps avg


Общее
General
Complete name : I:ЗАКАЧКИФил из будущего - сезон 1Phil.of.the.Future.1x21.SATRip.[www.Riper.AM].avi
Format : AVI
Format/Info : Audio Video Interleave
File size : 299 MiB
Duration : 21mn 35s
Overall bit rate : 1 934 Kbps
Writing application : VirtualDubMod 1.5.10.3 | www.virtualdub-fr.org || (build 2550/release)
Writing library : VirtualDubMod build 2550/release
Video
ID : 0
Format : MPEG-4 Visual
Format profile : Advanced Simple@L5
Format settings, BVOP : 2
Format settings, QPel : No
Format settings, GMC : No warppoints
Format settings, Matrix : Default (H.263)
Codec ID : XVID
Codec ID/Hint : XviD
Duration : 21mn 35s
Bit rate : 1 796 Kbps
Width : 704 pixels
Height : 528 pixels
Display aspect ratio : 4:3
Frame rate : 25.000 fps
Color space : YUV
Chroma subsampling : 4:2:0
Bit depth : 8 bits
Scan type : Progressive
Compression mode : Lossy
Bits/(Pixel*Frame) : 0.193
Stream size : 277 MiB (93%)
Writing library : XviD 1.2.1 (UTC 2008-12-04)
Audio
ID : 1
Format : MPEG Audio
Format version : Version 1
Format profile : Layer 3
Mode : Joint stereo
Mode extension : MS Stereo
Codec ID : 55
Codec ID/Hint : MP3
Duration : 21mn 35s
Bit rate mode : Constant
Bit rate : 128 Kbps
Channel(s) : 2 channels
Sampling rate : 48.0 KHz
Compression mode : Lossy
Stream size : 19.8 MiB (7%)
Alignment : Aligned on interleaves
Interleave, duration : 40 ms (1.00 video frame)
Interleave, preload duration : 504 ms
Второй сезон:

Качество: SATRip-AVC
Формат: MKV
Видео кодек: H.264
Аудио кодек: MP2
Видео: 720x534, X264, 25fps, ~1600 kbps, Bits/(Pixel*Frame) : 0.166
Аудио: MPEG Audio 48000Hz stereo 128 kbps

Семпл

General
Unique ID : 180637276599431691098356556089528048947 (0x87E579588EE4992186BBAE01B7FA5D33)
Complete name : D:Фил из будущего (2сезон)Phil.of.the.Future.2x07.mkv
Format : Matroska
Format version : Version 2
File size : 268 MiB
Duration : 21mn 40s
Overall bit rate : 1 729 Kbps
Encoded date : UTC 2012-03-17 05:19:59
Writing application : mkvmerge v5.4.0 ('Piper') built on Mar 10 2012 13:34:39
Writing library : libebml v1.2.3 + libmatroska v1.3.0

Video
ID : 1
Format : AVC
Format/Info : Advanced Video Codec
Format profile : High@L5.0
Format settings, CABAC : Yes
Format settings, ReFrames : 8 frames
Muxing mode : Header stripping
Codec ID : V_MPEG4/ISO/AVC
Duration : 21mn 40s
Bit rate : 1 600 Kbps
Width : 720 pixels
Height : 534 pixels
Display aspect ratio : 4:3
Frame rate : 25.000 fps
Color space : YUV
Chroma subsampling : 4:2:0
Bit depth : 8 bits
Scan type : Progressive
Bits/(Pixel*Frame) : 0.166
Stream size : 243 MiB (91%)
Writing library : x264 core 120 r2120bm 0c7dab9
Encoding settings : cabac=1 / ref=8 / deblock=1:-1:-1 / analyse=0x3:0x133 / me=umh / subme=9 / psy=1 / psy_rd=1.00:0.15 / mixed_ref=1 / me_range=16 / chroma_me=1 / trellis=2 / 8x8dct=1 / cqm=0 / deadzone=21,11 / fast_pskip=1 / chroma_qp_offset=-3 / threads=6 / sliced_threads=0 / nr=0 / decimate=1 / interlaced=0 / bluray_compat=0 / constrained_intra=0 / bframes=3 / b_pyramid=2 / b_adapt=2 / b_bias=0 / direct=3 / weightb=1 / open_gop=0 / weightp=2 / keyint=250 / keyint_min=25 / scenecut=40 / intra_refresh=0 / rc_lookahead=60 / rc=2pass / mbtree=1 / bitrate=1600 / ratetol=1.0 / qcomp=0.60 / qpmin=0 / qpmax=69 / qpstep=4 / cplxblur=20.0 / qblur=0.5 / ip_ratio=1.40 / aq=1:1.00
Language : Russian
Default : Yes
Forced : No

Audio
ID : 2
Format : MPEG Audio
Format version : Version 1
Format profile : Layer 2
Muxing mode : Header stripping
Codec ID : A_MPEG/L2
Codec ID/Hint : MP2
Duration : 21mn 40s
Bit rate mode : Constant
Bit rate : 128 Kbps
Channel(s) : 2 channels
Sampling rate : 48.0 KHz
Compression mode : Lossy
Delay relative to video : 21ms
Stream size : 19.8 MiB (7%)
Language : Russian
Default : Yes
Forced : No




Скачать Фил.из.будущего.Phil.of.the.Future.[S01-02].(Фред.Сэвидж.Нил.Израэл.Шон.МакНамара).[2005.комедия.фантастика.SATRip.SATRip-AVC].[Dub].torrent без регистрации
Золото ЗОЛОТАЯ РАЗДАЧА! СКАЧАННОЕ НЕ ЗАСЧИТЫВАЕТСЯ! Золото
Дата: Зарегистрирован   [ Тип: внутренний ] Как тут cкачать?
MAGNET ссылка
MAGNET ссылка


Скачать .torrent

33 KB

Статус: проверено DHT
Скачан: торрент - 154 раз, раздача полностью - 0 раз
Размер: 11,38 GB
Оценка:  5 (Голосов: 1)
Поблагодарили: 1
Поделиться ссылкой на эту раздачу с друзьями:
В контактеFacebookОдноклассникиTwitterLivejournalМой МирLiveinternet
 

 
Показать сообщения:    


Вы не можете начинать темы
Вы не можете отвечать на сообщения
Вы не можете редактировать свои сообщения
Вы не можете удалять свои сообщения
Вы не можете голосовать в опросах
Вы не можете прикреплять файлы к сообщениям
Вы можете скачивать файлы