Loading...
Error

Скачать Англичанин, который поднялся на холм, а спустился с горы / The Englishman Who Went Up a Hill But Came Down a Mountain (Кристофер Монгер / Christopher Monger) [1995, комедия, мелодрама, семейный, HDTVRip] [MVO] (ViruseProject) торрент без регистрации

 
Статистика раздачи
Размер:  1,37 GB   |    Скачан:  141 раз
Сидов:  1  [  0 KB/s  ]  
 
Автор Сообщение

leon030982

[] 

Англичанин, который поднялся на холм, но спустился с горы / The Englishman Who Went Up a Hill But Came Down a Mountain
Страна: Великобритания
Жанр: комедия, мелодрама, семейный
Год выпуска: 1995
Продолжительность: 01:35:44

Перевод: Любительский (многоголосый закадровый) 14 голосов - (ViruseProject)
Cубтитры: нет

Режиссер: Кристофер Монгер / Christopher Monger

В ролях: Хью Грант / Hugh Grant, Тара Фитцджеральд / Tara Fitzgerald, Колм Мини / Colm Meaney, Йен МакНайс / Ian McNeice, Йен Харт / Ian Hart, Кеннет Гриффит / Kenneth Griffith, Тудор Вон / Tudor Vaughan, Хью Вон / Hugh Vaughan, Роберт Паг / Robert Pugh, Роберт Блайт / Robert Blythe, Гарфилд Морган / Garfield Morgan, Лиза Пэлфри / Lisa Palfrey, Дэфидд Вин Робертс / Dafydd Wyn Roberts, Иуан Рис / Ieuan Rhys, Энвен Уильямс / Anwen Williams.

Описание: Интересно, когда в России в 1917 году зрела Великая Октябрьская социалистическая революция, чем занимались островитяне-великобританцы?..
Слоганом фильм следовало бы сделать фразу, сказанную священником в фильме: «Молитва, сделанная грунтом».
В воскресенье, 17 июня 1917 года, когда шла первая мировая война, и Великобритания, напрягая все силы, воевала с Германией на полях Франции, в уэльскую деревушку, которая носит название Флинен Гароу (Ffynnon Garw, на местном уэльском/валлийском/кимрийском языке это означает примерно Rough Fountain, то есть Бурный Родник, Бешеные Ключи или что-то в том же духе, если по звукам, то Флюннен Горв) и начиналась сразу там, где заканчивалась Англия, проездом на служебном автомобиле прибыли два офицера: молодой — Реджинальд Ансон (Reginald Anson, исполняет Хью Грант, многое играет мимикой, моментами похож на ироничное амплуа шоумена Максима Галкина) и его непосредственный и весьма — до колоритности — грузный начальник Джордж Гаррад (George Garrad, его играет Йен МакНайс).

В общем, в картине есть и британский юмор, и многослойность (любовная история, восприятие менталитета валлийцев через призму англичан и наоборот), и множество так и не развитых, и тем придающих полноту, сюжетных линий (например, контуженный дрессирует черепаху), есть и грусть, что всегда сопровождает фильмы о родине, большой или же малой.


скачать СЕМПЛ с multi-up
Качество видео: HDTVRip
Формат видео: AVI
Видео: 720x304 (2.37:1), 23.976 fps, XviD MPEG-4 ~1843 kbps avg, 0.35 bit/pixel
Аудио: 48 kHz, MPEG Layer 3, 2 ch, ~192.00 kbps avg
Фильм получил т. н. приз христианского жюри на Московском Международном кинофестивале в 1995 году и Приз за лучший фильм - Золотой «Святой Георгий»


Релиз:

Озвучка:
*Pro-Snip (Дмитрий Иванов )
*Vincent_2009 (Михаил Чадов)
*СтРа (СеКа)
*neophytmusic (Борис Александров)
*48 kbps (Сергей Павловский )
*IgVin (Игорь Головин)
*Агент Смит (Александр Харченко )
*Berserk (Вячеслав Громов)
*13viking (Евгений Киселев)
*viruse (Виталий Емельянов)
*_Aldani_ (Полина Касаткина)
*Ёлка (Елена Емельянова)
*Solncekleshka (Татьяна Романовская)
*Lalusha (Алла Блаер)
Перевод: troinh3+другие сабы
Редактор перевода, работа с видео, монтаж, сведение звука: viruse
*******************************
*******************************
D:\ОЗВУЧКА\ГОТОВОЕ\АНГЛИЧАНИН КОТОРЫЙ 2\Anglichanin.kotoriy.podnialsay.na.holm.1995.ViruseProject.avi
General
Complete name : D:\ОЗВУЧКА\ГОТОВОЕ\АНГЛИЧАНИН КОТОРЫЙ 2\Anglichanin.kotoriy.podnialsay.na.holm.1995.ViruseProject.avi
Format : AVI
Format/Info : Audio Video Interleave
File size : 1.37 GiB
Duration : 1h 35mn
Overall bit rate : 2 045 Kbps
Writing application : VirtualDubMod 1.5.10.2 (build 2540/release)
Writing library : VirtualDubMod build 2540/release
Video #0
ID : 0
Format : MPEG-4 Visual
Format profile : Advanced Simple@L5
Format settings, BVOP : 2
Format settings, QPel : No
Format settings, GMC : No warppoints
Format settings, Matrix : Default (H.263)
Muxing mode : Packed bitstream
Codec ID : XVID
Codec ID/Hint : XviD
Duration : 1h 35mn
Bit rate : 1 843 Kbps
Width : 720 pixels
Height : 304 pixels
Display aspect ratio : 2.35:1
Frame rate : 23.976 fps
Color space : YUV
Chroma subsampling : 4:2:0
Bit depth : 8 bits
Scan type : Progressive
Compression mode : Lossy
Bits/(Pixel*Frame) : 0.351
Stream size : 1.23 GiB (90%)
Writing library : XviD 64
Audio #1
ID : 1
Format : MPEG Audio
Format version : Version 1
Format profile : Layer 3
Codec ID : 55
Codec ID/Hint : MP3
Duration : 1h 35mn
Bit rate mode : Constant
Bit rate : 192 Kbps
Channel(s) : 2 channels
Sampling rate : 48.0 KHz
Compression mode : Lossy
Stream size : 131 MiB (9%)
Alignment : Aligned on interleaves
Interleave, duration : 42 ms (1.00 video frame)
Interleave, preload duration : 504 ms



Скачать Англичанин.который.поднялся.на.холм.а.спустился.с.горы.The.Englishman.Who.Went.Up.a.Hill.But.Came.Down.a.Mountain.(Кристофер.Монгер.Christopher.Monger).[1995.комедия.мелодрама.семейный.HDTVRip].[MVO].(ViruseProject).torrent без регистрации
Золото ЗОЛОТАЯ РАЗДАЧА! СКАЧАННОЕ НЕ ЗАСЧИТЫВАЕТСЯ! Золото
Дата: Зарегистрирован   [ Тип: внутренний ] Как тут cкачать?
MAGNET ссылка
MAGNET ссылка


Скачать .torrent

14 KB

Статус: проверено DHT
Скачан: торрент - 141 раз, раздача полностью - 15 раз
Размер: 1,37 GB
Оценка:  - (Голосов: 0)
Поблагодарили: 1
Поделиться ссылкой на эту раздачу с друзьями:
В контактеFacebookОдноклассникиTwitterLivejournalМой МирLiveinternet
 

 
Показать сообщения:    


Вы не можете начинать темы
Вы не можете отвечать на сообщения
Вы не можете редактировать свои сообщения
Вы не можете удалять свои сообщения
Вы не можете голосовать в опросах
Вы не можете прикреплять файлы к сообщениям
Вы можете скачивать файлы