Loading...
Error

Скачать Отчаянный Папа / Отцовство / Father Hood (Даррелл Джеймс Рудт / Darrell James Roodt) [1993 г., Криминальная комедия, DVDRip] MVO + AVO(Пронин) торрент без регистрации

 
Статистика раздачи
Размер:  1,46 GB   |    Скачан:  147 раз
Сидов:  1  [  0 KB/s  ]  
 
Автор Сообщение

deniska1975

[] 

Отчаянный Папа / Отцовство / Father Hood (1993) DVDRip


Русское название: Отчаянный Папа / Отцовство
Оригинальное название: Father Hood
Год выпуска: 1993
Жанр: Комедия, Криминал

Режиссер: Даррелл Джеймс Рудт
Актеры: Патрик Суэйзи, Холли Берри, Сабрина Ллойд, Брайан Бонсалл, Майкл Айронсайд, Дайан Лэдд, Боб Гантон, Эдриенн Барбо, Джорганн Джонсон, Марвин Дж. МакИнтайр
Продолжительность: 01:35:03
Перевод: Профессиональный (многоголосый, закадровый) / Авторский (одноголосый, закадровый) [Антон Пронин]

Описание фильма:
Джек Чарльз - беспутный отец, имеющий три судимости и не уделяющий должного внимания своим детям. После смерти матери дети оказываются в интернате, где с ними обращаются не лучшим образом. Джек решает похитить их и, скрываясь от преследования полиции, совершает ряд безрассудных поступков. Угон автомобиля и катера он осуществляет весело и с выдумкой. Но постепенно восхищение детей сменяется горечью, что у них все не так, как у других...




Дата мировой премьеры: 27 августа 1993

Формат видео: AVI
Качество видео: DVDRip
Видео: XviD, 720x384 (1.875), 23.976 fps, 1 802 Kbps (0.272 bit/pixel)
Аудио #1: AC-3, 48.0 KHz, 2 ch, 192 Kbps, - многоголоска
Аудио #2: AC-3, 48.0 KHz, 2 ch, 192 Kbps, - Пронин

Общее
Полное имя : D:\Фильмы\otcovstvo_1.46.avi
Формат : AVI
Формат/Информация : Audio Video Interleave
Размер файла : 1,46 Гбайт
Продолжительность : 1 ч. 35 м.
Общий поток : 2201 Кбит/сек
Программа кодирования : VirtualDubMod 1.5.10.2 (build 2540/release)
Библиотека кодирования : VirtualDubMod build 2540/release

Видео
Идентификатор : 0
Формат : MPEG-4 Visual
Профиль формата : Advanced Simple@L5
Параметр BVOP формата : 1
Параметр QPel формата : Нет
Параметр GMC формата : Без точки перехода
Параметр матрицы формата : Выборочная
Идентификатор кодека : XVID
Идентификатор кодека/Подсказка : XviD
Продолжительность : 1 ч. 35 м.
Битрейт : 1802 Кбит/сек
Ширина : 720 пикселей
Высота : 384 пикселя
Соотношение сторон : 1,875
Частота кадров : 23,976 кадра/сек
Цветовое пространство : YUV
Субдискретизация насыщенности : 4:2:0
Битовая глубина : 8 бит
Тип развёртки : Прогрессивная
Метод сжатия : С потерями
Бит/(Пиксели*Кадры) : 0.272
Размер потока : 1,20 Гбайт (82%)
Библиотека кодирования : XviD 1.2.1 (UTC 2008-12-04)

Аудио #1
Идентификатор : 1
Формат : AC-3
Формат/Информация : Audio Coding 3
Расширение режима : CM (complete main)
Идентификатор кодека : 2000
Продолжительность : 1 ч. 35 м.
Вид битрейта : Постоянный
Битрейт : 192 Кбит/сек
Каналы : 2 канала
Расположение каналов : Front: L R
Частота : 48,0 КГц
Битовая глубина : 16 бит
Метод сжатия : С потерями
Размер потока : 131 Мбайт (9%)
Выравнивание : Разделение по промежуткам
Продолжительность промежутка : 42 мс. (1,00 видеокадр)
Время предзагрузки промежутка : 500 мс.

Аудио #2
Идентификатор : 2
Формат : AC-3
Формат/Информация : Audio Coding 3
Расширение режима : CM (complete main)
Идентификатор кодека : 2000
Продолжительность : 1 ч. 35 м.
Вид битрейта : Постоянный
Битрейт : 192 Кбит/сек
Каналы : 2 канала
Расположение каналов : Front: L R
Частота : 48,0 КГц
Битовая глубина : 16 бит
Метод сжатия : С потерями
Размер потока : 131 Мбайт (9%)
Выравнивание : Разделение по промежуткам
Продолжительность промежутка : 42 мс. (1,00 видеокадр)
Время предзагрузки промежутка : 500 мс.
Скриншоты:



Время раздачи: с 8:00 до 1:00 по москве



Скачать Отчаянный.Папа.Отцовство.Father.Hood.(Даррелл.Джеймс.Рудт.Darrell.James.Roodt).[1993.г.Криминальная.комедия.DVDRip].MVO.+.AVO(Пронин).torrent без регистрации
Золото ЗОЛОТАЯ РАЗДАЧА! СКАЧАННОЕ НЕ ЗАСЧИТЫВАЕТСЯ! Золото
Дата: Зарегистрирован   [ Тип: внутренний ] Как тут cкачать?
MAGNET ссылка
MAGNET ссылка


Скачать .torrent

15 KB

Статус: проверено DHT
Скачан: торрент - 147 раз, раздача полностью - 9 раз
Размер: 1,46 GB
Оценка:  5 (Голосов: 1)
Поблагодарили: 0
Поделиться ссылкой на эту раздачу с друзьями:
В контактеFacebookОдноклассникиTwitterLivejournalМой МирLiveinternet
 

 

deniska1975

[] 

ay
 
Показать сообщения:    


Вы не можете начинать темы
Вы не можете отвечать на сообщения
Вы не можете редактировать свои сообщения
Вы не можете удалять свои сообщения
Вы не можете голосовать в опросах
Вы не можете прикреплять файлы к сообщениям
Вы можете скачивать файлы