Loading...
Error

Скачать Волшебный король / Beings (Пол Мэтьюз / Paul Matthews) [1998, фэнтези, приключения, семейный, DVDRip] торрент без регистрации

 
Статистика раздачи
Размер:  1,35 GB   |    Скачан:  155 раз

Полного источника не было: 29 минут

 
Автор Сообщение

Marsianka

[] 

Информация о фильме
Название: Волшебный король
Оригинальное название: Beings
Год выхода: 1998
Жанр: фэнтези, приключения, семейный
Режиссер: Пол Мэтьюз / Paul Matthews
В ролях: Корбин Бернсен, Глайнис Барбер, Jameson Baltes, Бритни Боманн, Leigh Greyvenstein, Малкольм МакДауэлл, Anne Curteis, Рон Смержак, Аманда Лэйн

О фильме:
Иви и Кайл приезжают с родителями на остров Мэн и селятся в красивом доме, полученном в наследство от бабушки. Местные жители уверяют, что это нехорошее место и в заброшенной шахте заключены злобные гоблины.

Но дети верят, что в подземелье томятся добрые эльфы, низвергнутые туда много веков назад злым великаном. Чтобы им помочь, необходимо открыть вход в подземелье…


Страна: США
Продолжительность: 01:31:13
Перевод: Профессиональный (многоголосый, закадровый) / Оригинал

Файл
Кодек: MPEG4 / AAC LC
Качество: DVDRip
Видео: MPEG4, 720x576 (5/4), 25.000 fps, 1 848 Kbps (0.178 bit/pixel)
Звук:
AAC LC, 48.0 KHz, 2 ch, 129 Kbps, VBR [rus]
AAC LC, 48.0 KHz, 2 ch, 129 Kbps, VBR [eng]
Общее
Полное имя : F:Volshebniy.Korol_[Rutor.org].avi
Формат : MPEG-4
Профиль формата : Base Media / Version 2
Идентификатор кодека : mp42
Размер файла : 1,35 Гбайт
Продолжительность : 1 ч. 31 м.
Общий поток : 2117 Кбит/сек
Дата кодирования : UTC 2008-04-26 11:52:05
Дата пометки : UTC 2008-04-26 14:13:33

Видео
Идентификатор : 1
Формат : MPEG-4 Visual
Профиль формата : Advanced Simple@L5
Параметр BVOP формата : Да
Параметр QPel формата : Да
Параметр GMC формата : Без точки перехода
Параметр матрицы формата : Default (H.263)
Идентификатор кодека : 20
Продолжительность : 1 ч. 31 м.
Вид битрейта : Переменный
Битрейт : 1848 Кбит/сек
Максимальный битрейт : 8162 Кбит/сек
Ширина : 720 пикс.
Высота : 576 пикс.
Соотношение сторон : 4:3
Режим частоты кадров : Постоянный
Частота кадров : 25,000 кадр/сек
Стандарт вещания : PAL
Цветовое пространство : YUV
Подвыборка цветности : 4:2:0
Битовая глубина : 8 бит
Тип развёртки : Прогрессивная
Метод сжатия : С потерями
Бит/(Пиксели*Кадры) : 0.178
Размер потока : 1,18 Гбайт (87%)
Библиотека кодирования : em4v 4.1.6.5
Язык : English
Дата кодирования : UTC 2008-04-26 11:52:05
Дата пометки : UTC 2008-04-26 14:13:33

Аудио #1
Идентификатор : 2
Формат : AAC
Формат/Информация : Advanced Audio Codec
Профиль формата : LC
Идентификатор кодека : 40
Продолжительность : 1 ч. 31 м.
Вид битрейта : Переменный
Битрейт : 129 Кбит/сек
Максимальный битрейт : 149 Кбит/сек
Канал(ы) : 2 канала(ов)
Расположение каналов : Front: L R
Частота : 48,0 КГц
Метод сжатия : С потерями
Размер потока : 84,2 Мбайт (6%)
Язык : English
Дата кодирования : UTC 2008-04-26 11:52:05
Дата пометки : UTC 2008-04-26 14:13:33

Аудио #2
Идентификатор : 3
Формат : AAC
Формат/Информация : Advanced Audio Codec
Профиль формата : LC
Идентификатор кодека : 40
Продолжительность : 1 ч. 31 м.
Вид битрейта : Переменный
Битрейт : 129 Кбит/сек
Максимальный битрейт : 157 Кбит/сек
Канал(ы) : 2 канала(ов)
Расположение каналов : Front: L R
Частота : 48,0 КГц
Метод сжатия : С потерями
Размер потока : 84,3 Мбайт (6%)
Язык : English
Дата кодирования : UTC 2008-04-26 11:52:05
Дата пометки : UTC 2008-04-26 14:13:33

Меню
00:00:00.000 : Раздел 1
00:06:00.000 : Раздел 2
00:12:00.000 : Раздел 3
00:18:00.000 : Раздел 4
00:24:00.000 : Раздел 5
00:30:00.000 : Раздел 6
00:36:00.000 : Раздел 7
00:42:00.000 : Раздел 8
00:48:00.000 : Раздел 9
00:54:00.000 : Раздел 10
01:00:00.000 : Раздел 11
01:06:00.000 : Раздел 12
01:12:00.000 : Раздел 13
01:18:00.000 : Раздел 14
01:24:00.000 : Раздел 15
01:29:00.000 : Раздел 16



Скачать Волшебный.король.Beings.(Пол.Мэтьюз.Paul.Matthews).[1998.фэнтези.приключения.семейный.DVDRip].torrent без регистрации
Золото ЗОЛОТАЯ РАЗДАЧА! СКАЧАННОЕ НЕ ЗАСЧИТЫВАЕТСЯ! Золото
Дата: Зарегистрирован   [ Тип: внутренний ] Как тут cкачать?
MAGNET ссылка
MAGNET ссылка


Скачать .torrent

14 KB

Статус: проверено DHT
Скачан: торрент - 155 раз, раздача полностью - 16 раз
Размер: 1,35 GB
Оценка:  4 (Голосов: 1)
Поблагодарили: 0
Поделиться ссылкой на эту раздачу с друзьями:
В контактеFacebookОдноклассникиTwitterLivejournalМой МирLiveinternet
 

 
Показать сообщения:    


Вы не можете начинать темы
Вы не можете отвечать на сообщения
Вы не можете редактировать свои сообщения
Вы не можете удалять свои сообщения
Вы не можете голосовать в опросах
Вы не можете прикреплять файлы к сообщениям
Вы можете скачивать файлы