Loading...
Error

Скачать Белый воротничок / White Collar (Полный 4-ый сезон) (Джон Т. Кречмер, Кевин Брэй, Дэнни Гордон) [2012, драма, криминал, детектив, WEB-DL] [720p] [MVO] (NewStudio Rumedia) + [DVO] (NewStudio) (Gutta, Caps) торрент без регистрации

 
Статистика раздачи
Размер:  25,26 GB   |    Скачан:  5192 раза
Сидов:  1  [  0 KB/s  ]  
 
Автор Сообщение

leon030982

[] 

Белый воротничок / White Collar
Год выпуска: 2012
Страна: США
Жанр: драма, криминал, детектив
Продолжительность: ~ 00:44:00
Перевод 1: Профессиональный (многоголосый закадровый) - NewStudio (Rumedia)
Перевод 2: Профессиональный (двухголосый закадровый) - NewStudio (Gutta, Caps)
Оригинальная дорожка: английская
Русские субтитры: нет
Субтитры: отсутствуют
Режиссёр: Джон Т. Кречмер, Кевин Брэй, Дэнни Гордон
В ролях: Мэттью Бомер (Neal Caffrey), Тим ДиКей (Peter Burke), Уилли Гарсон (Mozzie), Шариф Аткинс (Jones), Тиффани Тиссен (Elizabeth Burke), Натали Моралес (Lauren Cruz), Джеймс Ребхорн (Reese Hughes), Александра Даддарио (Kate), Дайан Кэрролл (June), Глория Вотсис (Alex), Ноа Эммерик (Garrett Fowler), Пайпер Кенни (OPR Agent) и др.
Описание: Сериал рассказывает о сотрудничестве гениального мошенника и агента ФБР. Нил Кэффри, невероятно обаятельный преступный ум, наконец-то был пойман своим извечным врагом, отличным агентом государственной безопасности Питером Берком. Когда Нил бежит из тюрьмы, чтобы найти свою пропавшую любовь, Питер ловит его еще раз. Нил предлагает ему не торопиться с отправкой в тюрьму, и рассмотреть возможность сотрудничества. Ведь Нил мог бы помочь словить самых “элитных” преступников, “белых воротничков” преступного мира. Питер понимает, что интуиция и преступный опыт Нила, которых нет у законопослушного агента, могут стать хорошим подспорьем в борьбе с криминалом.


Перевод: Negenka
Редактор: Олег Папулов
Подготовка видео: Koss
Работа со звуком: Baggio
Сэмпл:http://multi-up.com/735527
Качество: WEB-DL 720p
Формат: MKV
Видео кодек: H.264
Аудиокодек: AC3
Видео: AVC, 1280x720 (16/9), 23.976 fps, 3 939 Kbps (0.178 bit/pixel)
Аудио (rus) 1: AC-3, 48.0 KHz, 6 ch, 384 Kbps, CBR (Russian)
Аудио (rus) 2: AC-3, 48.0 KHz, 6 ch, 384 Kbps, CBR (Gutta, Caps)
Аудио 3 (eng): AC-3, 48.0 KHz, 6 ch, 384 Kbps, CBR
General
Unique ID : 174453899378939297266312627714668610987 (0x833E994FBC07431D8861D738184BC5AB)
Complete name : I:\ЗАКАЧКИ\White.Collar.s04e01.Web-DL.720p.NewStudio.TV.mkv
Format : Matroska
File size : 1.44 GiB
Duration : 42mn 53s
Overall bit rate : 4 803 Kbps
Movie name : White Collar S04E01 Wanted
Encoded date : UTC 2012-07-20 16:51:50
Writing application : mkvmerge v5.7.0 ('The Whirlwind') built on Jul 8 2012 20:08:51
Writing library : libebml v1.2.3 + libmatroska v1.3.0
Video
ID : 1
Format : AVC
Format/Info : Advanced Video Codec
Format profile : High@L3.1
Format settings, CABAC : No
Format settings, ReFrames : 2 frames
Format settings, GOP : M=2, N=48
Codec ID : V_MPEG4/ISO/AVC
Duration : 42mn 53s
Bit rate : 3 939 Kbps
Width : 1 280 pixels
Height : 720 pixels
Display aspect ratio : 16:9
Frame rate : 23.976 fps
Color space : YUV
Chroma subsampling : 4:2:0
Bit depth : 8 bits
Scan type : Progressive
Bits/(Pixel*Frame) : 0.178
Stream size : 1.18 GiB (82%)
Title : h.264
Language : English
Color primaries : BT.709-5, BT.1361, IEC 61966-2-4, SMPTE RP177
Transfer characteristics : BT.709-5, BT.1361
Matrix coefficients : BT.709-5, BT.1361, IEC 61966-2-4 709, SMPTE RP177
Audio #1
ID : 2
Format : AC-3
Format/Info : Audio Coding 3
Mode extension : CM (complete main)
Codec ID : A_AC3
Duration : 42mn 53s
Bit rate mode : Constant
Bit rate : 384 Kbps
Channel(s) : 6 channels
Channel positions : Front: L C R, Side: L R, LFE
Sampling rate : 48.0 KHz
Bit depth : 16 bits
Compression mode : Lossy
Stream size : 118 MiB (8%)
Language : Russian
Audio #2
ID : 3
Format : AC-3
Format/Info : Audio Coding 3
Mode extension : CM (complete main)
Codec ID : A_AC3
Duration : 42mn 53s
Bit rate mode : Constant
Bit rate : 384 Kbps
Channel(s) : 6 channels
Channel positions : Front: L C R, Side: L R, LFE
Sampling rate : 48.0 KHz
Bit depth : 16 bits
Compression mode : Lossy
Stream size : 118 MiB (8%)
Title : DD 5.1
Language : English
Раздача ведётся путём добавления новых серий; при каждом добавлении создаётся новый торрент. Чтобы начать докачку новой серии, пользователям необходимо сделать следующее:
(1) остановить скачивание,
(2) удалить старый торрент у себя из клиента (старые серии удалять не надо),
(3) скачать новый торрент и запустить его у себя в клиенте вместо старого, при этом указать клиенту путь в старую папку куда и должно происходить скачивание новых серий.
Ваш клиент при этом должен произвести хеширование (проверку) старой папки (если не производит сам - помогите ему сделать это), и будет докачивать только те серии которых у вас ещё нет. Старые серии при этом не удаляются, а продолжают раздаваться!
Eсли вы уже удалили старые серии, то предотвратить повторную закачку старых серий можно, отжав галочку в соответствующих местах при запуске нового торрента. По возможности, желательно не удалять старые серии как можно дольше чтобы релизёр не столько продолжал раздавать старые серии, а смог сконцентрироваться на новых.
14.03.13 добавлена финальная 16-я серия



Скачать Белый.воротничок.White.Collar.(Полный.4-ый.сезон).(Джон.Т.Кречмер.Кевин.Брэй.Дэнни.Гордон).[2012.драма.криминал.детектив.WEB-DL].[720p].[MVO].(NewStudio.Rumedia).+.[DVO].(NewStudio).(Gutta.Caps).torrent без регистрации
Золото ЗОЛОТАЯ РАЗДАЧА! СКАЧАННОЕ НЕ ЗАСЧИТЫВАЕТСЯ! Золото
Дата: Зарегистрирован   [ Тип: внутренний ] Как тут cкачать?
MAGNET ссылка
MAGNET ссылка


Скачать .torrent

128 KB

Статус: проверено DHT
Скачан: торрент - 5192 раз, раздача полностью - 56 раз
Размер: 25,26 GB
Оценка:  5 (Голосов: 1)
Поблагодарили: 5
Поделиться ссылкой на эту раздачу с друзьями:
В контактеFacebookОдноклассникиTwitterLivejournalМой МирLiveinternet
 

 

leon030982

[] 

Раздача обновлена 26.08.12 и теперь содержит две русские озвучки ab
 

leon030982

[] 

01.02.13 добавлена 11-я серия
 

leon030982

[] 

добавлена 12-я серия ad
 

leon030982

[] 

09.03.13 добавлена 14-я серия
 

leon030982

[] 

14.03.13 добавлена финальная 16-я серия az
 
Показать сообщения:    


Вы не можете начинать темы
Вы не можете отвечать на сообщения
Вы не можете редактировать свои сообщения
Вы не можете удалять свои сообщения
Вы не можете голосовать в опросах
Вы не можете прикреплять файлы к сообщениям
Вы можете скачивать файлы