Loading...
Error

Скачать Белый воротничок / White Collar (Полный 4-ый сезон) (Джефф Истен) [2012 г., драма, криминал, детектив, WEB-DLRip] [MVO] [Rumedia] + [DVO] (NewStudio @ Gutta, Caps) торрент без регистрации

Страницы:  1, 2  След.

 
Статистика раздачи
Размер:  7,04 GB   |    Скачан:  8399 раз
Сидов:  1  [  0 KB/s  ]  
 
Автор Сообщение

leon030982

[] 

Белый воротничок / White Collar


Год выпуска: 2012
Страна: США | USA
Жанр: драма, криминал, детектив
Продолжительность: ~ 42 минуты
Перевод 1:Профессиональный (Многоголосый, закадровый) [Rumedia]
Перевод 2: Профессиональный (двухголосый, закадровый) - NewStudio @ Gutta, Caps
Субтитры: Нет
Режиссёр: Джефф Истен
В ролях: Мэттью Бомер (Neal Caffrey), Тим ДиКей (Peter Burke), Уилли Гарсон (Mozzie), Шариф Аткинс (Jones), Тиффани Тиссен (Elizabeth Burke), Натали Моралес (Lauren Cruz), Джеймс Ребхорн (Reese Hughes), Александра Даддарио (Kate), Дайан Кэрролл (June), Глория Вотсис (Alex), Ноа Эммерик (Garrett Fowler), Пайпер Кенни (OPR Agent) и др.
Описание: Сериал рассказывает о сотрудничестве гениального мошенника и агента ФБР. Нил Кэффри, невероятно обаятельный преступный ум, наконец-то был пойман своим извечным врагом, отличным агентом государственной безопасности Питером Берком. Когда Нил бежит из тюрьмы, чтобы найти свою пропавшую любовь, Питер ловит его еще раз. Нил предлагает ему не торопиться с отправкой в тюрьму, и рассмотреть возможность сотрудничества. Ведь Нил мог бы помочь поймать самых “элитных” преступников, “белых воротничков” преступного мира. Питер понимает, что интуиция и преступный опыт Нила, которых нет у законопослушного агента, могут стать хорошим подспорьем в борьбе с криминалом.
Качество: WEB-DLRip
Формат: AVI
Видео кодек: XviD
Аудио кодек: MP3
Видео: 624x352 (16:9), 23.976 fps, ~1100 kbps, ~0.200 bit/pixel
Аудио 1: 48 kHz, 2 ch, ~128 kbps |[Rumedia]|
Аудио 2: 48 kHz, 2 ch, ~128 kbps |NewStudio @ Gutta, Caps|
Аудио Eng: 48 kHz, 2 ch, ~128 kbps |Original|

Озвучка: Gutta, Caps
Перевод: Negenka
Редактор: Олег Папулов
Подготовка видео: Koss
Работа со звуком: Baggio
Сэмпл / ImDB / Кинопоиск
[b]Общее
Полное имя : F:\White.Collar.s04.NewStudio\White.Collar.s04e01.NewStudio.avi
Формат : AVI
Формат/Информация : Audio Video Interleave
Размер файла : 410 Мбайт
Продолжительность : 43 м.
Общий поток : 1331 Кбит/сек
Программа кодирования : VirtualDubMod 1.5.10.2 (build 2540/release)
Библиотека кодирования : VirtualDubMod build 2540/release
Видео
Идентификатор : 0
Формат : MPEG-4 Visual
Профиль формата : Advanced Simple@L5
Параметр BVOP формата : 2
Параметр QPel формата : Нет
Параметр GMC формата : Без точки перехода
Параметр матрицы формата : Default (MPEG)
Идентификатор кодека : XVID
Идентификатор кодека/Подсказка : XviD
Продолжительность : 43 м.
Битрейт : 1061 Кбит/сек
Ширина : 624 пикселя
Высота : 352 пикселя
Соотношение сторон : 16:9
Частота кадров : 23,976 кадра/сек
Цветовое пространство : YUV
Субдискретизация насыщенности : 4:2:0
Битовая глубина : 8 бит
Тип развёртки : Прогрессивная
Метод сжатия : С потерями
Бит/(Пиксели*Кадры) : 0.201
Размер потока : 326 Мбайт (80%)
Библиотека кодирования : XviD 64
Аудио #1
Идентификатор : 1
Формат : MPEG Audio
Версия формата : Version 1
Профиль формата : Layer 3
Режим : Joint stereo
Расширение режима : MS Stereo
Идентификатор кодека : 55
Идентификатор кодека/Подсказка : MP3
Продолжительность : 43 м.
Вид битрейта : Постоянный
Битрейт : 128 Кбит/сек
Каналы : 2 канала
Частота : 48,0 КГц
Метод сжатия : С потерями
Размер потока : 39,4 Мбайт (10%)
Выравнивание : Соединение по промежуткам
Продолжительность промежутка : 42 мс. (1,00 видеокадр)
Время предзагрузки промежутка : 504 мс.
Аудио #2
Идентификатор : 2
Формат : MPEG Audio
Версия формата : Version 1
Профиль формата : Layer 3
Режим : Joint stereo
Расширение режима : MS Stereo
Идентификатор кодека : 55
Идентификатор кодека/Подсказка : MP3
Продолжительность : 43 м.
Вид битрейта : Постоянный
Битрейт : 128 Кбит/сек
Каналы : 2 канала
Частота : 48,0 КГц
Метод сжатия : С потерями
Размер потока : 39,4 Мбайт (10%)
Выравнивание : Соединение по промежуткам
Продолжительность промежутка : 42 мс. (1,00 видеокадр)
Время предзагрузки промежутка : 504 мс.
Внимание! Раздача ведётся путём добавления новых серий; при каждом добавлении создётся новый торрент. Чтобы начать докачку новой серии, пользователям необходимо сделать следующее:Остановить скачивание.
Удалить старый торрент у себя из клиента (старые серии удалять не надо).
Скачать новый торрент и запустить его у себя в клиенте вместо старого, при этом указать клиенту путь в старую папку куда и должно происходить скачивание новых серий.Ваш клиент при этом должен произвести хеширование (проверку) старой папки (если не производит сам - помогите ему сделать это), и будет докачивать только те серии которых у вас ещё нет. Старые серии при этом не удаляются, а продолжают раздаваться!
Eсли вы уже удалили старые серии, то предотвратить повторную закачку старых серий можно, отжав галочку в соответсвующих местах при запуске нового торрента. По возможности, желательно не удалять старые серии как можно дольше чтобы релизёр не столько продолжал раздавать старые серии, а смог сконцентрироваться на новых.
[align=center] [/font]
ВНИМАНИЕ!!!Раздача обновлена 14.03.13.Добавлена финальная 16-я серия!
Удачной закачки и приятного просмотра!!



Скачать Белый.воротничок.White.Collar.(Полный.4-ый.сезон).(Джефф.Истен).[2012.г.драма.криминал.детектив.WEB-DLRip].[MVO].[Rumedia].+.[DVO].(NewStudio.@.Gutta.Caps).torrent без регистрации
Золото ЗОЛОТАЯ РАЗДАЧА! СКАЧАННОЕ НЕ ЗАСЧИТЫВАЕТСЯ! Золото
Дата: Зарегистрирован   [ Тип: внутренний ] Как тут cкачать?
MAGNET ссылка
MAGNET ссылка


Скачать .torrent

20 KB

Статус: проверено DHT
Скачан: торрент - 8399 раз, раздача полностью - 77 раз
Размер: 7,04 GB
Оценка:  5 (Голосов: 2)
Поблагодарили: 9
Поделиться ссылкой на эту раздачу с друзьями:
В контактеFacebookОдноклассникиTwitterLivejournalМой МирLiveinternet
 

 

ЮристЪ

[] 

Спасибо за оперативность. С нетерпением жду очередных серий :)
 

leon030982

[] 

ЮристЪ писал(а):

Спасибо за оперативность. С нетерпением жду очередных серий :)
сериал ушел в отпуск до января 2013 ac
 

ЮристЪ

[] 

Очень жаль...то есть, в этом году больше серий не будет? Только десять?
 

leon030982

[] 

ЮристЪ писал(а):

Очень жаль...то есть, в этом году больше серий не будет? Только десять?
в этом не будет,в январе продолжение.Сериал "Костюмы в законе" также ушел в отпуск ac Вот такие у них заморочки
 

ЮристЪ

[] 

понятно, спасибо :)
 

ЮристЪ

[] 

leon030982
Уже январь прошел...а серий все нет.... будут ? а?
 

leon030982

[] 

ЮристЪ писал(а):

leon030982
Уже январь прошел...а серий все нет.... будут ? а?
11-я серия вышла за бугром 22 января 2013 года, так что дело за озвучателями из нью студио
серии 01-11 с субтитрами http://goldenshara.com/viewtopic.php?p=311397#311397
 

leon030982

[] 

Раздача обновлена 01.02.13.Добавлена 11-я серия!
Удачной закачки и приятного просмотра!!
 

ЮристЪ

[] 

leon030982
Спасибо :)
 

leon030982

[] 

ЮристЪ писал(а):

leon030982
Спасибо :)
всегда пожалуйста ab
 

leon030982

[] 

09.02.13 добавлена 12-я серия!!!
 

leon030982

[] 

ВНИМАНИЕ!!!Раздача обновлена 15.02.13.Добавлена 13-я серия!
Удачной закачки и приятного просмотра!!
 

leon030982

[] 

ВНИМАНИЕ!!!Раздача обновлена 01.03.13.Добавлена 14-я серия!
 

leon030982

[] 

Добавлена 15-я серия! az
 
Показать сообщения:    


Вы не можете начинать темы
Вы не можете отвечать на сообщения
Вы не можете редактировать свои сообщения
Вы не можете удалять свои сообщения
Вы не можете голосовать в опросах
Вы не можете прикреплять файлы к сообщениям
Вы можете скачивать файлы