Loading...
Error

Скачать Охотники / Jägarna (Челль Сундвалль / Kjell Sundvall) [1996, Драма, детектив, триллер, HDRip] [DVO] (ViruseProject) торрент без регистрации

 
Статистика раздачи
Размер:  1,48 GB   |    Скачан:  136 раз
Сидов:  1  [  0 KB/s  ]  
 
Автор Сообщение

leon030982

[] 

Охотники / Jägarna

Страна: Швеция
Жанр: Драма, детектив, триллер
Год выпуска: 1996
Продолжительность: 01:53:08
Перевод: Любительский (двухголосый закадровый)ViruseProject
Cубтитры: нет

Оригинальная аудиодорожка: шведский
Режиссер: Челль Сундвалль / Kjell Sundvall
В ролях: Лассгорд Рольф (Эрик), Йекель Леннарт (Лейф), Мякинен Ярмо (Томме), Нурстрём Тумас (Уве), Форсмарк Йёран (Хокан), Дегерлунд Рольф (Эйлерт), Доминго Эдита (Нена), Бергстрём Хелена (Анна Сивертссон), Хедлунд Роланд (Бенгтссон), Линдман Оке (Оке Сеттерлунд), Перски Петер (русский), Брюландер Петра (русская)
Описание: Стокгольмский полицейский Эрик Бекстрём возвращается на родину в Норботтен, где живёт его младший брат Лейф. Устроившись на работу в местную полицию, он сталкивается с бандой браконьеров, отстреливающих в округе оленей. Полицейские не горят желанием расследовать случаи браконьерства. Вскоре он обнаруживает, что в незаконной охоте замешаны хорошо знакомые ему люди, а через некоторое время полиция находит в лесу труп русской сборщицы ягод с перерезанным горлом, и дело принимает всё более серьёзный оборот...



Качество видео: HDRip
Формат видео: AVI
Видео кодек: Xvid
Аудио кодек: MP3
Видео: 720х304(2/36.1), Xvid, 1872 kbps, 0.234 b/p
Аудио: 48 kHz, MP3 2 ch, 128 kbps
Аудио 2: 48 kHz, AC3 6 ch, 448 kbps
D:\Kinoblya\Îõîòíèêè 1996\Îõîòíèêè.avi
General
Complete name : D:\Kinoblya\Îõîòíèêè 1996\Îõîòíèêè.avi
Format : AVI
Format/Info : Audio Video Interleave
File size : 1.48 GiB
Duration : 1h 53mn
Overall bit rate : 1 872 Kbps
Writing application : VirtualDubMod 1.5.10.2 (build 2540/release)
Writing library : VirtualDubMod build 2540/release
Video #0
ID : 0
Format : MPEG-4 Visual
Format profile : Advanced Simple@L1
Format settings, BVOP : No
Format settings, QPel : Yes
Format settings, GMC : No warppoints
Format settings, Matrix : Default (H.263)
Codec ID : DIVX
Codec ID/Info : Project Mayo
Codec ID/Hint : DivX 4
Duration : 1h 53mn
Bit rate : 1 281 Kbps
Width : 720 pixels
Height : 304 pixels
Display aspect ratio : 2.35:1
Frame rate : 25.000 fps
Color space : YUV
Chroma subsampling : 4:2:0
Bit depth : 8 bits
Scan type : Progressive
Compression mode : Lossy
Bits/(Pixel*Frame) : 0.234
Stream size : 1.01 GiB (68%)
Writing library : Lavc52.41.0
Audio #1
ID : 1
Format : MPEG Audio
Format version : Version 1
Format profile : Layer 3
Codec ID : 55
Codec ID/Hint : MP3
Duration : 1h 53mn
Bit rate mode : Constant
Bit rate : 128 Kbps
Channel(s) : 2 channels
Sampling rate : 48.0 KHz
Compression mode : Lossy
Delay relative to video : 8s 928ms
Stream size : 104 MiB (7%)
Alignment : Split accross interleaves
Interleave, duration : 40 ms (1.00 video frame)
Interleave, preload duration : 504 ms
Audio #2
ID : 2
Format : AC-3
Format/Info : Audio Coding 3
Mode extension : CM (complete main)
Codec ID : 2000
Duration : 1h 53mn
Bit rate mode : Constant
Bit rate : 448 Kbps
Channel(s) : 6 channels
Channel positions : Front: L C R, Side: L R, LFE
Sampling rate : 48.0 KHz
Bit depth : 16 bits
Compression mode : Lossy
Stream size : 363 MiB (24%)
Alignment : Aligned on interleaves
Interleave, duration : 40 ms (1.00 video frame)
Interleave, preload duration : 512 ms



Скачать Охотники.Jägarna.(Челль.Сундвалль.Kjell.Sundvall).[1996.Драма.детектив.триллер.HDRip].[DVO].(ViruseProject).torrent без регистрации
Золото ЗОЛОТАЯ РАЗДАЧА! СКАЧАННОЕ НЕ ЗАСЧИТЫВАЕТСЯ! Золото
Дата: Зарегистрирован   [ Тип: внутренний ] Как тут cкачать?
MAGNET ссылка
MAGNET ссылка


Скачать .torrent

30 KB

Статус: проверено DHT
Скачан: торрент - 136 раз, раздача полностью - 9 раз
Размер: 1,48 GB
Оценка:  - (Голосов: 0)
Поблагодарили: 1
Поделиться ссылкой на эту раздачу с друзьями:
В контактеFacebookОдноклассникиTwitterLivejournalМой МирLiveinternet
 

 
Показать сообщения:    


Вы не можете начинать темы
Вы не можете отвечать на сообщения
Вы не можете редактировать свои сообщения
Вы не можете удалять свои сообщения
Вы не можете голосовать в опросах
Вы не можете прикреплять файлы к сообщениям
Вы можете скачивать файлы