Loading...
Error

Скачать Люди Альфа / Alphas (Сезон 02 полный) (Ник Копус) [2012 г., фантастика, боевик, драма, триллер, WEB-DLRip] [MVO] (LostFilm) торрент без регистрации

 
Статистика раздачи
Размер:  6,35 GB   |    Скачан:  463 раза
Сидов:  1  [  0 KB/s  ]  
 
Автор Сообщение

leon030982

[] 



Люди Альфа / Alphas


«Impossible is what they do best.»
Год выпуска: 2012
Страна: США | Syfy
Жанр: фантастика, боевик, драма, триллер
Продолжительность: ~ 42 минуты
Перевод: Профессиональный (многоголосый, закадровый) - LostFilm
Оригинальная дорожка: английская
Субтитры: Нет

Режиссёр: Ник Копус
В ролях: Дэвид Стрэтэйрн, Райан Картрайт, Уоррен Кристи, Азита Ганизада, Лаура Меннелл, Мэлик Йоба, Джон Пайпер-Фергюсон, Махершалалхашбаз Али, Валери Крус, Кэтлин Гати и др.
Описание: Эксперт министерства обороны Ли Розен возглавляет подразделение специалистов, обладающих уникальными способностями. Каждый из пяти членов его команды - человек со сверхразвитыми психофизическими возможностями. В разработку группы Альфа попадают исключительно сверхсложные задания, с которыми не могут справиться американские спецслужбы - ФБР и ЦРУ. По отдельности каждый из агентов мало чем отличается от обычных людей и в одиночку не способен на что-то экстраординарное, но вместе они могут творить чудеса.
Качество: WEB-DLRip
Формат: AVI
Видео кодек: XviD
Аудио кодек: MP3
Видео: 720x400 (16:9), 23.976 fps, ~1350 kbps, ~0.195 bit/pixel
Аудио Rus: 48 kHz, 2 ch, ~128 kbps |LostFilm|
Аудио Eng: 48 kHz, 2 ch, ~128 kbps |Original|


Озвучка: Студия "LostFilm"
Сэмпл / ImDB / Кинопоиск
26.10.2012 г. торент обновлён, добавлена финальная13-я серия!

01. Пробуждение / Wake Up Call
02. Быстрый и мертвый / The Quick and the Dead
03. Альфа-доги / Alpha Dogs
04. Когда нет другого выхода / When Push Comes to Shove
05. Заблуждение / Gaslight
06. Альфавилль / Alphaville
07. Боги и монстры / Gods and Monsters
08. Падение / Falling
09. Дьявол тебя погубит / The Devil Will Drag You Under
10. Жизнь после смерти / Life After Death
11. Если память не изменяет / If Memory Serves
12. Надо знать / Need to Know
Общее
Полное имя : F:\Alphas.s02.LostFilm\Alphas.s02e01.LostFilm.avi
Формат : AVI
Формат/Информация : Audio Video Interleave
Размер файла : 500 Мбайт
Продолжительность : 47 м.
Общий поток : 1464 Кбит/сек
Программа кодирования : VirtualDubMod 1.5.10.2 (build 2540/release)
Библиотека кодирования : VirtualDubMod build 2540/release
Видео
Идентификатор : 0
Формат : MPEG-4 Visual
Профиль формата : Advanced Simple@L5
Параметр BVOP формата : 1
Параметр QPel формата : Нет
Параметр GMC формата : Без точки перехода
Параметр матрицы формата : Выборочная
Идентификатор кодека : XVID
Идентификатор кодека/Подсказка : XviD
Продолжительность : 47 м.
Битрейт : 1194 Кбит/сек
Ширина : 720 пикселей
Высота : 400 пикселей
Соотношение сторон : 16:9
Частота кадров : 23,976 кадра/сек
Цветовое пространство : YUV
Субдискретизация насыщенности : 4:2:0
Битовая глубина : 8 бит
Тип развёртки : Прогрессивная
Метод сжатия : С потерями
Бит/(Пиксели*Кадры) : 0.173
Размер потока : 408 Мбайт (82%)
Библиотека кодирования : XviD 65
Аудио #1
Идентификатор : 1
Формат : MPEG Audio
Версия формата : Version 1
Профиль формата : Layer 3
Режим : Joint stereo
Расширение режима : MS Stereo
Идентификатор кодека : 55
Идентификатор кодека/Подсказка : MP3
Продолжительность : 47 м.
Вид битрейта : Постоянный
Битрейт : 128 Кбит/сек
Каналы : 2 канала
Частота : 48,0 КГц
Метод сжатия : С потерями
Размер потока : 43,7 Мбайт (9%)
Выравнивание : Соединение по промежуткам
Продолжительность промежутка : 42 мс. (1,00 видеокадр)
Время предзагрузки промежутка : 504 мс.
Аудио #2
Идентификатор : 2
Формат : MPEG Audio
Версия формата : Version 1
Профиль формата : Layer 3
Режим : Joint stereo
Расширение режима : MS Stereo
Идентификатор кодека : 55
Идентификатор кодека/Подсказка : MP3
Продолжительность : 47 м.
Вид битрейта : Постоянный
Битрейт : 128 Кбит/сек
Каналы : 2 канала
Частота : 48,0 КГц
Метод сжатия : С потерями
Размер потока : 43,7 Мбайт (9%)
Выравнивание : Соединение по промежуткам
Продолжительность промежутка : 42 мс. (1,00 видеокадр)
Время предзагрузки промежутка : 504 мс.

При каждом добавлении создаёться новый торрент. Чтобы начать докачку новой серии, пользователям необходимо сделать следующее:
Остановить скачивание.
Удалить старый торрент у себя из клиента (старые серии удалять не надо).
Скачать новый торрент и запустить его у себя в клиенте вместо старого, при этом указать клиенту путь в старую папку куда и должно происходить скачивание новых серий.Ваш клиент при этом должен произвести хеширование (проверку) старой папки (если не производит сам - помогите ему сделать это), и будет докачивать только те серии которых у вас ещё нет. Старые серии при этом не удаляются, а продолжают раздаваться!
Eсли вы уже удалили старые серии, то предотвратить повторную закачку старых серий можно, отжав галочку в соответсвующих местах при запуске нового торрента. По возможности, желательно не удалять старые серии как можно дольше чтобы релизёр не столько продолжал раздавать старые серии, а смог сконцентрироваться на новых.
Сезон завершен



Скачать Люди.Альфа.Alphas.(Сезон.02.полный).(Ник.Копус).[2012.г.фантастика.боевик.драма.триллер.WEB-DLRip].[MVO].(LostFilm).torrent без регистрации
Золото ЗОЛОТАЯ РАЗДАЧА! СКАЧАННОЕ НЕ ЗАСЧИТЫВАЕТСЯ! Золото
Дата: Зарегистрирован   [ Тип: внутренний ] Как тут cкачать?
MAGNET ссылка
MAGNET ссылка


Скачать .torrent

33 KB

Статус: проверено DHT
Скачан: торрент - 463 раз, раздача полностью - 144 раз
Размер: 6,35 GB
Оценка:  5 (Голосов: 6)
Поблагодарили: 14
Поделиться ссылкой на эту раздачу с друзьями:
В контактеFacebookОдноклассникиTwitterLivejournalМой МирLiveinternet
 

 
Показать сообщения:    


Вы не можете начинать темы
Вы не можете отвечать на сообщения
Вы не можете редактировать свои сообщения
Вы не можете удалять свои сообщения
Вы не можете голосовать в опросах
Вы не можете прикреплять файлы к сообщениям
Вы можете скачивать файлы