Loading...
Error

13 / Warehouse 13 ( 4- ) ( / Chris Fisher) [2012, , , , , WEB-DL] [720p] [MVO] (LostFilm)

 
29,31 GB   |    :  374
1  [  0 KB/s  ]  
 

leon030982

[] 


13 / Warehouse 13
4 / Season 4

: 2012
:
: , , ,
: ~00:43:00
: - LostFilm
: "Kravec".
:
:

: / Chris Fisher

: , , , , , , , , ,

: . , . - .


:


: http://multi-up.com/738701
: WEB-DL 720p
: MKV
: H.264
: AC3
: 1280x720 at 23.976 fps, MPEG-4 AVC, ~4000 kbps avg, 0.18 bit/pixel
#1: : 48 kHz, AC3, 3/2 (L,C,R,l,r) + LFE ch, ~384 kbps avg | , LostFilm|
#2: : 48 kHz, AC3, 3/2 (L,C,R,l,r) + LFE ch, ~384.00 kbps avg
1. A New Hope /

:

General
Complete name : Warehouse.13.S04E01.720p.WEB-DL.Rus.Eng.HDCLUB.mkv
Format : Matroska
Format version : Version 2
File size : 1.41 GiB
Duration : 42mn 36s
Overall bit rate : 4 735 Kbps
Movie name : Warehouse 13 [Season 4] (2012) - Release for HDCLUB
Encoded date : UTC 2012-07-28 01:00:57
Writing application : mkvmerge v5.7.0 ('The Whirlwind') built on Jul 8 2012 20:08:51
Writing library : libebml v1.2.3 + libmatroska v1.3.0
Video
ID : 1
Format : AVC
Format/Info : Advanced Video Codec
Format profile : High@L3.1
Format settings, CABAC : No
Format settings, ReFrames : 2 frames
Codec ID : V_MPEG4/ISO/AVC
Duration : 42mn 36s
Bit rate : 3 873 Kbps
Width : 1 280 pixels
Height : 720 pixels
Display aspect ratio : 16:9
Frame rate : 23.976 fps
Color space : YUV
Chroma subsampling : 4:2:0
Bit depth : 8 bits
Scan type : Progressive
Bits/(Pixel*Frame) : 0.175
Stream size : 1.15 GiB (82%)
Title : Warehouse 13 4x01: A New Hope / - Release for HDCLUB
Language : English
Default : Yes
Forced : No
Color primaries : BT.709-5, BT.1361, IEC 61966-2-4, SMPTE RP177
Transfer characteristics : BT.709-5, BT.1361
Matrix coefficients : BT.709-5, BT.1361, IEC 61966-2-4 709, SMPTE RP177
Audio #1
ID : 2
Format : AC-3
Format/Info : Audio Coding 3
Mode extension : CM (complete main)
Codec ID : A_AC3
Duration : 42mn 36s
Bit rate mode : Constant
Bit rate : 384 Kbps
Channel(s) : 6 channels
Channel positions : Front: L C R, Side: L R, LFE
Sampling rate : 48.0 KHz
Bit depth : 16 bits
Compression mode : Lossy
Stream size : 117 MiB (8%)
Title : LostFilm
Language : Russian
Default : Yes
Forced : No
Audio #2
ID : 3
Format : AC-3
Format/Info : Audio Coding 3
Mode extension : CM (complete main)
Codec ID : A_AC3
Duration : 42mn 36s
Bit rate mode : Constant
Bit rate : 384 Kbps
Channel(s) : 6 channels
Channel positions : Front: L C R, Side: L R, LFE
Sampling rate : 48.0 KHz
Bit depth : 16 bits
Compression mode : Lossy
Stream size : 117 MiB (8%)
Language : English
Default : No
Forced : No
Text
ID : 4
Format : UTF-8
Codec ID : S_TEXT/UTF8
Codec ID/Info : UTF-8 Plain Text
Language : English
Default : No
Forced : No
! , . , :
(1) ,
(2) ( ),
(3) , .
() ( - ), . , !
, , . , , .



.13.Warehouse.13.(.4-.).(..Chris.Fisher).[2012.....WEB-DL].[720p].[MVO].(LostFilm).torrent
  ! ! 
:   [ : ] c?
MAGNET
MAGNET


.torrent

148 KB

: DHT
: - 374 , - 13
: 29,31 GB
5 (: 4)
: 9
:
 FacebookTwitterLivejournal Liveinternet
 

 

leon030982

[] 

11- ay
 

leon030982

[] 

12- az
 

leon030982

[] 

13- ay
 

leon030982

[] 

14- ay
 

leon030982

[] 

az
 

leon030982

[] 

16- az
 

leon030982

[] 

17- az
 

leon030982

[] 

az ay
 

leon030982

[] 

az az
 
: