Loading...
Error

Скачать Коготь тигра / Tiger Claws (Келли Мэкин / Kelly Makin) [1991, боевик, DVDRip-AVC] [AVO] (Андрей Гаврилов) торрент без регистрации

 
Статистика раздачи
Размер:  1,45 GB   |    Скачан:  219 раз

Полного источника не было: 28 минут

 
Автор Сообщение

leon030982

[] 

Коготь тигра / Tiger Claws
«The city is being torn apart and only two cops can stop the frenzy»
Страна: США, Канада
Жанр: боевик
Год выпуска: 1991
Продолжительность: 01:32:26
Перевод: Авторский (одноголосый закадровый) (Андрей Гаврилов)
Cубтитры: нет

Режиссер: Келли Мэкин / Kelly Makin

В ролях: Синтия Ротрок, Ник Дибли, Боло Йенг, Ферн Фигуередо, Джалал Мерхи, Роберт Нолан, Кедар Браун, Кен Куинн, Эрни Коэн, Эрик Брайсон, Патти, Келли Макин, Гленн Пино, Кейт Хили, Сандра Смольский, Марк Шарки, Джон Уэбстер, Дэвид Стивенсон, Ховард Грин, Шон Б. Джеймс, Фрэнк Робинсон, Данн Ва, Рик Сью, Джеймс Вон

Описание: Полицейские Терек Ричардс и Линда Мэстерсон упорно идут по следу преступника с характерным почерком: на щеке зверски убитых людей, а убитые — чемпионы-каратисты, имитация когтей тигриной лапы. Поиски убийцы приводят полицейских в закрытую школу карате, где одним из лучших мастеров в стиле `Коготь тигра` считался Чонг.



Качество видео: DVDRip-AVC
Формат видео: MKV
Видео кодек: AVC
Аудио кодек: AC3
Видео: MPEG-4 AVC Video / 2052 Кбит/сек / 712x480@712x540 / 23,976 / 4:3 / High Profile 4.1
Аудио: Russian / AC3 / Dolby Digital Audio / 2.0 / 48 kHz / 192 kbps / |AVO|

Код:

[color=#006699]avs [info]: 712x480p 8:9 @ 2997/125 fps (cfr)
x264 [info]: using SAR=8/9
x264 [info]: using cpu capabilities: MMX2 SSE2Fast SSSE3 FastShuffle SSE4.2 AVX
x264 [info]: profile High, level 4.1
x264 [info]: frame I:1201  Avg QP:16.36  size: 37969
x264 [info]: frame P:27406 Avg QP:19.50  size: 19045
x264 [info]: frame B:104371 Avg QP:21.56  size:  8192
x264 [info]: consecutive B-frames:  2.0%  2.7%  7.7% 18.4% 20.9% 18.2% 11.2%  7.7%  8.0%  3.0%
x264 [info]: mb I  I16..4:  7.3% 67.2% 25.5%
x264 [info]: mb P  I16..4:  3.0% 23.8%  3.8%  P16..4: 30.1% 31.1%  6.5%  1.4%  0.1%    skip: 0.3%
x264 [info]: mb B  I16..4:  0.6%  3.4%  0.4%  B16..8: 38.6% 20.6%  2.4%  direct:20.6%  skip:13.4%  L0:47.0% L1:39.8% BI:13.3%
x264 [info]: 8x8 transform intra:76.6% inter:64.3%
x264 [info]: direct mvs  spatial:94.2% temporal:5.8%
x264 [info]: coded y,uvDC,uvAC intra: 82.6% 93.3% 70.0% inter: 39.6% 69.9% 12.2%
x264 [info]: i16 v,h,dc,p: 11% 16%  2% 71%
x264 [info]: i8 v,h,dc,ddl,ddr,vr,hd,vl,hu: 10% 11%  6%  8% 10% 11% 14% 12% 18%
x264 [info]: i4 v,h,dc,ddl,ddr,vr,hd,vl,hu:  9% 16%  4%  7% 12% 11% 15% 10% 16%
x264 [info]: i8c dc,h,v,p: 37% 29% 15% 19%
x264 [info]: Weighted P-Frames: Y:7.1% UV:2.0%
x264 [info]: ref P L0: 35.2%  6.9% 18.6%  9.3%  7.7%  5.8%  5.2%  3.1%  2.9%  2.5%  2.4%  0.4%  0.0%
x264 [info]: ref B L0: 62.0% 14.8%  7.7%  4.4%  3.2%  2.8%  2.3%  1.6%  0.9%  0.4%
x264 [info]: ref B L1: 90.3%  9.7%
x264 [info]: kb/s:2051.98
x264 [total]: encoded 132978 frames, 7.34 fps, 2051.98 kb/s[/color]

Код:

Общее
Уникальный идентификатор         : 202630719333887299067276485016581975924 (0x987141CADE798621BBDCA98092222F74)
Полное имя                       : C:\Users\Tiger Claws .1991.DVDRip-AVC_[rutracker.org]_by_Deerhoof.mkv
Формат                           : Matroska
Версия формата                   : Version 2
Размер файла                     : 1,45 Гбайт
Продолжительность                : 1 ч. 32 м.
Общий поток                      : 2246 Кбит/сек
Название фильма                  : TIGER CLAWS.1991_Deerhoof
Дата кодирования                 : UTC 2012-07-28 15:16:21
Программа кодирования            : mkvmerge v5.6.0 ('Kenya Kane') built on May 27 2012 16:44:04
Библиотека кодирования           : libebml v1.2.3 + libmatroska v1.3.0
Видео
Идентификатор                    : 1
Формат                           : AVC
Формат/Информация                : Advanced Video Codec
Профиль формата                  : High@L4.1
Параметр CABAC формата           : Да
Параметр ReFrames формата        : 11 кадров
Идентификатор кодека             : V_MPEG4/ISO/AVC
Продолжительность                : 1 ч. 32 м.
Битрейт                          : 2052 Кбит/сек
Ширина                           : 712 пикселей
Высота                           : 480 пикселей
Соотношение сторон               : 4:3
Частота кадров                   : 23,976 кадра/сек
Цветовое пространство            : YUV
Субдискретизация насыщенности    : 4:2:0
Битовая глубина                  : 8 бит
Тип развёртки                    : Прогрессивная
Бит/(Пиксели*Кадры)              : 0.250
Размер потока                    : 1,30 Гбайт (89%)
Заголовок                        : TIGER CLAWS.1991.DVDRip-AVC_[rutracker.org]_by_Deerhoof
Библиотека кодирования           : x264 core 116 r2074 2641b9e
Настройки программы              : cabac=1 / ref=11 / deblock=1:-2:-1 / analyse=0x3:0x133 / me=umh / subme=11 / psy=1 / psy_rd=0.97:0.10 / mixed_ref=1 / me_range=48 / chroma_me=1 / trellis=2 / 8x8dct=1 / cqm=0 / deadzone=21,11 / fast_pskip=0 / chroma_qp_offset=-3 / threads=6 / sliced_threads=0 / nr=0 / decimate=1 / interlaced=0 / bluray_compat=0 / constrained_intra=0 / bframes=9 / b_pyramid=2 / b_adapt=2 / b_bias=0 / direct=3 / weightb=1 / open_gop=0 / weightp=2 / keyint=250 / keyint_min=23 / scenecut=40 / intra_refresh=0 / rc_lookahead=80 / rc=2pass / mbtree=1 / bitrate=2052 / ratetol=1.0 / qcomp=0.60 / qpmin=0 / qpmax=69 / qpstep=4 / cplxblur=20.0 / qblur=0.5 / ip_ratio=1.40 / aq=2:0.90
Язык                             : English
Коэффициенты матрицы             : BT.709-5, BT.1361, IEC 61966-2-4 709, SMPTE RP177
Аудио
Идентификатор                    : 2
Формат                           : AC-3
Формат/Информация                : Audio Coding 3
Профиль формата                  : Dolby Digital
Расширение режима                : CM (complete main)
Идентификатор кодека             : A_AC3
Продолжительность                : 1 ч. 32 м.
Вид битрейта                     : Постоянный
Битрейт                          : 192 Кбит/сек
Каналы                           : 2 канала
Расположение каналов             : Front: L R
Частота                          : 48,0 КГц
Битовая глубина                  : 16 бит
Метод сжатия                     : С потерями
Размер потока                    : 127 Мбайт (9%)
Заголовок                        : Авторский (одноголосый)-Андрей Гаврилов
Язык                             : Russian



Скачать Коготь.тигра.Tiger.Claws.(Келли.Мэкин.Kelly.Makin).[1991.боевик.DVDRip-AVC].[AVO].(Андрей.Гаврилов).torrent без регистрации
Золото ЗОЛОТАЯ РАЗДАЧА! СКАЧАННОЕ НЕ ЗАСЧИТЫВАЕТСЯ! Золото
Дата: Зарегистрирован   [ Тип: внутренний ] Как тут cкачать?
MAGNET ссылка
MAGNET ссылка


Скачать .torrent

15 KB

Статус: проверено DHT
Скачан: торрент - 219 раз, раздача полностью - 5 раз
Размер: 1,45 GB
Оценка:  5 (Голосов: 2)
Поблагодарили: 1
Поделиться ссылкой на эту раздачу с друзьями:
В контактеFacebookОдноклассникиTwitterLivejournalМой МирLiveinternet
 

 
Показать сообщения:    


Вы не можете начинать темы
Вы не можете отвечать на сообщения
Вы не можете редактировать свои сообщения
Вы не можете удалять свои сообщения
Вы не можете голосовать в опросах
Вы не можете прикреплять файлы к сообщениям
Вы можете скачивать файлы