Loading...
Error

Скачать Кровавый спорт / Bloodsport (Ньют Арнольд / Newt Arnold) [1988, боевик, HDRip] [MVO] торрент без регистрации

 
Статистика раздачи
Размер:  743 MB   |    Скачан:  172 раза
Сидов:  1  [  0 KB/s  ]  
 
Автор Сообщение

leon030982

[] 

Кровавый спорт / Bloodsport
«Based on the real story of the Great White Dragon»

Год выпуска: 1988
Страна: США
Жанр: боевик
Продолжительность: 01:32:13
Перевод: Профессиональный (многоголосый закадровый)
Cубтитры: нет

Режиссер: Ньют Арнольд / Newt Arnold

В ролях: Жан-Клод Ван Дамм, Дональд Гибб, Леа Эйрс, Норман Бертон, Форест Уитейкер, Рой Чиао, Филип Чан, Пьер Рафини, Боло Йенг, Кен Сиу

Описание: На тайной гонконгской арене элитные бойцы выступают в «Кумите» — мировом чемпионате полноконтактного кун-фу. Американский военнослужащий Фрэнк Дюкс, самовольно оставляет часть, для того чтобы принять участие в этом соревновании. В свое время, будучи ребенком, он стал приемным сыном японца-учителя каратэ, достигая совершенства путем упорных тренировок. В знак успеха Фрэнк получил священный японский меч и право представлять клан Танака на любых чемпионатах, что совершенно не характерно для европейца. По следам молодого человека немедленно выдвигается ФБР. Несмотря на все преграды, возникающие на его пути, Фрэнк полон решимости добиться победы на «Кумите» и вступить в Братство Черного Дракона… Первая главная роль Жан-Клода Ван Дама, зарекомендовавшая себя с самой лучшей стороны. Фильм положил начало массе различных копий, клонов, множеству продолжений, которые лишь добавили «Кровавому спорту» эпохальности в своем жанре!

Исходник: BDRip 1080p
Качество видео: HDRip
Формат видео: AVI
Видео кодек: XviD
Аудио кодек: MP3
Видео: 656x368 (1.78:1), 23.976 fps, XviD build 62 ~989 kbps avg, 0.17 bit/pixel
Аудио: 48 kHz, MPEG Layer 3, 2 ch, ~128.00 kbps avg

General
Complete name : C:\Documents and Settings\Администратор\Рабочий стол\Bloodsport.HDRip.Rutracker.org_Drek.avi
Format : AVI
Format/Info : Audio Video Interleave
File size : 743 MiB
Duration : 1h 32mn
Overall bit rate : 1 127 Kbps
Writing application : VirtualDubModRus 1.5.10.2 (build 2542/release)
Writing library : VirtualDubMod build 2542/release
Video
ID : 0
Format : MPEG-4 Visual
Format profile : Advanced Simple@L5
Format settings, BVOP : Yes
Format settings, QPel : No
Format settings, GMC : No warppoints
Format settings, Matrix : Custom
Codec ID : XVID
Codec ID/Hint : XviD
Duration : 1h 32mn
Bit rate : 990 Kbps
Width : 656 pixels
Height : 368 pixels
Display aspect ratio : 16:9
Frame rate : 23.976 fps
Resolution : 8 bits
Colorimetry : 4:2:0
Scan type : Progressive
Bits/(Pixel*Frame) : 0.171
Stream size : 653 MiB (88%)
Writing library : XviD 62
Audio
ID : 1
Format : MPEG Audio
Format version : Version 1
Format profile : Layer 3
Codec ID : 55
Codec ID/Hint : MP3
Duration : 1h 31mn
Bit rate mode : Constant
Bit rate : 128 Kbps
Channel(s) : 2 channels
Sampling rate : 48.0 KHz
Video delay : 1s 776ms
Stream size : 84.2 MiB (11%)
Alignment : Split accross interleaves
Interleave, duration : 42 ms (1.00 video frame)
Interleave, preload duration : 504 ms
Writing library : LAME3.98r
Encoding settings : -m s -V 4 -q 2 -lowpass 17 -b 128



Скачать Кровавый.спорт.Bloodsport.(Ньют.Арнольд.Newt.Arnold).[1988.боевик.HDRip].[MVO].torrent без регистрации
Золото ЗОЛОТАЯ РАЗДАЧА! СКАЧАННОЕ НЕ ЗАСЧИТЫВАЕТСЯ! Золото
Дата: Зарегистрирован   [ Тип: внутренний ] Как тут cкачать?
MAGNET ссылка
MAGNET ссылка


Скачать .torrent

30 KB

Статус: проверено DHT
Скачан: торрент - 172 раз, раздача полностью - 94 раз
Размер: 743 MB
Оценка:  5 (Голосов: 1)
Поблагодарили: 1
Поделиться ссылкой на эту раздачу с друзьями:
В контактеFacebookОдноклассникиTwitterLivejournalМой МирLiveinternet
 

 
Показать сообщения:    


Вы не можете начинать темы
Вы не можете отвечать на сообщения
Вы не можете редактировать свои сообщения
Вы не можете удалять свои сообщения
Вы не можете голосовать в опросах
Вы не можете прикреплять файлы к сообщениям
Вы можете скачивать файлы