Loading...
Error

Скачать Рябины гроздья алые (Александр Итыгилов) [2009, мелодрама, SATRip] торрент без регистрации

 
Статистика раздачи
Размер:  1,73 GB   |    Скачан:  195 раз
Сидов:  1  [  0 KB/s  ]  
 
Автор Сообщение

deniska1975

[] 

Рябины гроздья алые

Русское название: Рябины гроздья алые
Год выпуска: 2009
Продолжительность: 02:52:20
Жанр: Мелодрама

Режиссер: Александр Итыгилов

Актеры: Мария Куликова, Евгений Дятлов, Эвклид Кюрдзидис, Ольга Матешко, Анастасия Сердюк, Юлия Волчкова, Вячеслав Гришечкин, Инна Цымбалюк, Никита Шпак, Денис Зеленко, Наташа Гибрик, Ольга Лукьяненко, Александр Дорохин, Валентина Чернова, Анастасия Заря, Вероника Михайло

Описание фильма:
Настя пытается пробиться сквозь стену отчуждения, выросшую между ней и сыном Антошкой после того, как она выгнала мужа Игоря. Теперь Антошка замкнулся и никому не доверяет. Сама главная героиня разочаровалась в жизни и просто плывет по течению, уже не надеясь встретить на своем пути порядочного, надежного и доброго мужчину, которого смогла бы полюбить. Сергей – хирург, у которого есть семилетняя дочь Павлина и 12-летний сын Миша. Убежав из дома, Павлина и "привела" Сергея к Насте, поскольку та работает в детской комнате милиции...


Общее
Полное имя : D:\Фильмы\Ryabiny_Grozdya_Alye.2009.мелодрама.avi
Формат : AVI
Формат/Информация : Audio Video Interleave
Размер файла : 1,73 Гбайт
Продолжительность : 2 ч. 52 м.
Общий поток : 1437 Кбит/сек
Программа кодирования : MEncoder UNKNOWN-4.2.4
Библиотека кодирования : VirtualDub-MPEG2 build 24600/release

Видео
Идентификатор : 0
Формат : MPEG-4 Visual
Профиль формата : Simple@L3
Параметр BVOP формата : Нет
Параметр QPel формата : Нет
Параметр GMC формата : Без точки перехода
Параметр матрицы формата : Default (H.263)
Идентификатор кодека : XVID
Идентификатор кодека/Подсказка : XviD
Продолжительность : 2 ч. 52 м.
Битрейт : 1299 Кбит/сек
Ширина : 716 пикселей
Высота : 422 пикселя
Соотношение сторон : 16:9
Частота кадров : 25,000 кадров/сек
Цветовое пространство : YUV
Субдискретизация насыщенности : 4:2:0
Битовая глубина : 8 бит
Тип развёртки : Прогрессивная
Метод сжатия : С потерями
Бит/(Пиксели*Кадры) : 0.172
Размер потока : 1,56 Гбайт (90%)
Библиотека кодирования : XviD 1.2.1 (UTC 2008-12-04)

Аудио
Идентификатор : 1
Формат : MPEG Audio
Версия формата : Version 1
Профиль формата : Layer 3
Режим : Joint stereo
Расширение режима : MS Stereo
Идентификатор кодека : 55
Идентификатор кодека/Подсказка : MP3
Продолжительность : 2 ч. 52 м.
Вид битрейта : Постоянный
Битрейт : 128 Кбит/сек
Каналы : 2 канала
Частота : 48,0 КГц
Метод сжатия : С потерями
Размер потока : 158 Мбайт (9%)
Выравнивание : Разделение по промежуткам
Продолжительность промежутка : 40 мс. (1,00 видеокадр)
Время предзагрузки промежутка : 500 мс.
Формат: AVI
Качество видео: SATRip
Видео: XviD, 716x422 (16:9), 25.000 fps, 1 299 Kbps (0.172 bit/pixel)
Аудио: MP3, 48.0 KHz, 2 ch, 128 Kbps, CBR



Скачать Рябины.гроздья.алые.(Александр.Итыгилов).[2009.мелодрама.SATRip].torrent без регистрации
Золото ЗОЛОТАЯ РАЗДАЧА! СКАЧАННОЕ НЕ ЗАСЧИТЫВАЕТСЯ! Золото
Дата: Зарегистрирован   [ Тип: внутренний ] Как тут cкачать?
MAGNET ссылка
MAGNET ссылка


Скачать .torrent

18 KB

Статус: проверено DHT
Скачан: торрент - 195 раз, раздача полностью - 10 раз
Размер: 1,73 GB
Оценка:  5 (Голосов: 1)
Поблагодарили: 3
Поделиться ссылкой на эту раздачу с друзьями:
В контактеFacebookОдноклассникиTwitterLivejournalМой МирLiveinternet
 

 

deniska1975

[] 

ad ay
 
Показать сообщения:    


Вы не можете начинать темы
Вы не можете отвечать на сообщения
Вы не можете редактировать свои сообщения
Вы не можете удалять свои сообщения
Вы не можете голосовать в опросах
Вы не можете прикреплять файлы к сообщениям
Вы можете скачивать файлы