Loading...
Error

Скачать Маменькин сыночек / Водонос / The Waterboy (Фрэнк Корачи) [1998, комедия, спорт, HDRip] [DUB] торрент без регистрации

 
Статистика раздачи
Размер:  1,45 GB   |    Скачан:  196 раз
Сидов:  1  [  0 KB/s  ]  
 
Автор Сообщение

deniska1975

[] 

Маменькин сыночек / Водонос /
The Waterboy (1998) HDRip

Русское название: Маменькин сыночек / Водонос
Оригинальное название: The Waterboy
Год выпуска: 1998
Жанр: Комедия, спорт
Страна: CША

Режиссер: Фрэнк Корачи

Актеры: Адам Сэндлер, Кэти Бейтс, Файруза Балк, Генри Уинклер, Джерри Рид, Ларри Джиллиард мл., Блейк Кларк, Питер Данте, Джонатан Лоугрэн, Аль Уайтинг

Описание фильма:
Великовозрастный балбес Бобби Буше все тридцать лет своей жизни делал то, что ему велела мамочка. В результате он сделал блестящую карьеру… в качестве разносчика воды для футбольной команды. Маменькин сынок так бы и остался в тени чемпионов, если бы новый тренер вдруг не заметил, что этот мальчик на побегушках слишком быстро бегает.

Мудрый наставник приглашает его в команду и на глазах изумленной публики неприметный Бобби становится настоящей звездой! Но ведь он достиг грандиозных успехов за маминой спиной. Значит, вскоре Бобби предстоит столкнуться с ней лицом к лицу…


Продолжительность: 01:29:39
Перевод: Профессиональный (полное дублирование)



Формат: AVI
Качество видео: HDRip
Video: 704x384 (1.83:1), 23.976 fps, XviD build 50 ~1929 kbps avg, 0.30 bit/pixel
Audio: 48 kHz, AC3 Dolby Digital, 3/2 (L,C,R,l,r) + LFE ch, ~384 kbps

Общее
Полное имя : R:\Фильмы\Кино\Mamenkin_synochek.avi
Формат : AVI
Формат/Информация : Audio Video Interleave
Размер файла : 1,45 Гбайт
Продолжительность : 1 ч. 29 м.
Общий поток : 2323 Кбит/сек
Название фильма : The Waterboy (1998) BDRip
Режиссёр : DaniLch
Жанр : Comedy/Sport
Программа кодирования : VirtualDubMod 1.5.10.2 (build 2542/release)

Видео
Идентификатор : 0
Формат : MPEG-4 Visual
Профиль формата : Advanced Simple@L5
Параметр BVOP формата : 1
Параметр QPel формата : Нет
Параметр GMC формата : Без точки перехода
Параметр матрицы формата : Выборочная
Идентификатор кодека : XVID
Идентификатор кодека/Подсказка : XviD
Продолжительность : 1 ч. 29 м.
Битрейт : 1929 Кбит/сек
Ширина : 704 пикселя
Высота : 384 пикселя
Соотношение сторон : 16:9
Частота кадров : 23,976 кадра/сек
Цветовое пространство : YUV
Субдискретизация насыщенности : 4:2:0
Битовая глубина : 8 бит
Тип развёртки : Прогрессивная
Метод сжатия : С потерями
Бит/(Пиксели*Кадры) : 0.298
Размер потока : 1,21 Гбайт (83%)
Библиотека кодирования : XviD 1.2.1 (UTC 2008-12-04)

Аудио
Идентификатор : 1
Формат : AC-3
Формат/Информация : Audio Coding 3
Расширение режима : CM (complete main)
Идентификатор кодека : 2000
Продолжительность : 1 ч. 29 м.
Вид битрейта : Постоянный
Битрейт : 384 Кбит/сек
Каналы : 6 каналов
Расположение каналов : Front: L C R, Side: L R, LFE
Частота : 48,0 КГц
Битовая глубина : 16 бит
Метод сжатия : С потерями
Размер потока : 246 Мбайт (17%)
Выравнивание : Разделение по промежуткам
Продолжительность промежутка : 42 мс. (1,00 видеокадр)
Время предзагрузки промежутка : 500 мс.
Скриншоты:


Время раздачи: с 8:00 до 1:00 по москве



Скачать Маменькин.сыночек.Водонос.The.Waterboy.(Фрэнк.Корачи).[1998.комедия.спорт.HDRip].[DUB].torrent без регистрации
Золото ЗОЛОТАЯ РАЗДАЧА! СКАЧАННОЕ НЕ ЗАСЧИТЫВАЕТСЯ! Золото
Дата: Зарегистрирован   [ Тип: внутренний ] Как тут cкачать?
MAGNET ссылка
MAGNET ссылка


Скачать .torrent

15 KB

Статус: проверено DHT
Скачан: торрент - 196 раз, раздача полностью - 108 раз
Размер: 1,45 GB
Оценка:  5 (Голосов: 1)
Поблагодарили: 1
Поделиться ссылкой на эту раздачу с друзьями:
В контактеFacebookОдноклассникиTwitterLivejournalМой МирLiveinternet
 

 

deniska1975

[] 

 
Показать сообщения:    


Вы не можете начинать темы
Вы не можете отвечать на сообщения
Вы не можете редактировать свои сообщения
Вы не можете удалять свои сообщения
Вы не можете голосовать в опросах
Вы не можете прикреплять файлы к сообщениям
Вы можете скачивать файлы