Loading...
Error

Скачать Ребята - игроки / Gameboy Kids / Ji Boy xiao zi zhi zhen jia wai long (Гордон Чан / Gordon Chan) [1992 г., боевик, комедия, DVDRip] [AVO] (Визгунов) торрент без регистрации

 
Статистика раздачи
Размер:  804 MB   |    Скачан:  132 раза

Полного источника не было: 25 минут

 
Автор Сообщение

leon030982

[] 

Ребята - игроки / Gameboy Kids / Ji Boy xiao zi zhi zhen jia wai long

Год выпуска: 1992
Страна: Гонконг
Жанр: боевик, комедия
Продолжительность: 01:35:19
Перевод: Авторский (одноголосый закадровый) Визгунов

Режиссер: Гордон Чан / Gordon Chan

В ролях: Энди Лау, Аарон Квок, Лоуренс Чэн, Марк Кинг, Сандра Нг,
Розамунд Кван
, Спенсер Лам, Мэн Тат ЭнДжи, Так Юэнь, Юэнь Ву-Пин

Описание: Умирает глава триады, оставляя всю свою криминальную империю своему незаконнорожденному сыну Вонгу (Энди Лау). Однако по пути Вонг теряет паспорт, который находит Тай (Энди Лау), похожий на Вонга, как две капли воды. Тай великолепно считает, но в своем умственном развитии остановился на уровне ребенка, поэтому он даже не понимает, чем ему грозит то, что теперь бандиты принимают его за нового босса.



Рип от
Качество видео: DVDRip
Формат файла: AVI
Видео: 720x320, 23.976 fps, MPEG-4 Visual, 907 kbps
Аудио 1: 48 kHz, MP3, 2 ch, 128 kbps [Russian]
Аудио 2: 48 kHz, MP3, 2 ch, 128 kbps [Chinese]
General
Format : AVI
Format/Info : Audio Video Interleave
File size : 804 MiB
Duration : 1h 35mn
Overall bit rate : 1 177 Kbps
Writing application : VirtualDubModRus 1.5.10.2 (build 2542/release)
Writing library : VirtualDubMod build 2542/release
Video
ID : 0
Format : MPEG-4 Visual
Format profile : Advanced Simple@L5
Format settings, BVOP : Yes
Format settings, QPel : No
Format settings, GMC : No warppoints
Format settings, Matrix : Custom
Codec ID : XVID
Codec ID/Hint : XviD
Duration : 1h 35mn
Bit rate : 907 Kbps
Width : 720 pixels
Height : 320 pixels
Display aspect ratio : 2.25:1
Frame rate : 23.976 fps
Color space : YUV
Chroma subsampling : 4:2:0
Bit depth : 8 bits
Scan type : Progressive
Bits/(Pixel*Frame) : 0.164
Stream size : 620 MiB (77%)
Writing library : XviD 1.2.0.dev47 (UTC 2006-11-01)
Audio #1
ID : 1
Format : MPEG Audio
Format version : Version 1
Format profile : Layer 3
Mode : Joint stereo
Codec ID : 55
Codec ID/Hint : MP3
Duration : 1h 35mn
Bit rate mode : Constant
Bit rate : 128 Kbps
Channel(s) : 2 channels
Sampling rate : 48.0 KHz
Stream size : 87.4 MiB (11%)
Alignment : Aligned on interleaves
Interleave, duration : 42 ms (1.00 video frame)
Interleave, preload duration : 504 ms
Audio #2
ID : 2
Format : MPEG Audio
Format version : Version 1
Format profile : Layer 3
Mode : Joint stereo
Codec ID : 55
Codec ID/Hint : MP3
Duration : 1h 35mn
Bit rate mode : Constant
Bit rate : 128 Kbps
Channel(s) : 2 channels
Sampling rate : 48.0 KHz
Stream size : 87.4 MiB (11%)
Alignment : Aligned on interleaves
Interleave, duration : 42 ms (1.00 video frame)
Interleave, preload duration : 504 ms



Скачать Ребята.-.игроки.Gameboy.Kids.Ji.Boy.xiao.zi.zhi.zhen.jia.wai.long.(Гордон.Чан.Gordon.Chan).[1992.г.боевик.комедия.DVDRip].[AVO].(Визгунов).torrent без регистрации
Золото ЗОЛОТАЯ РАЗДАЧА! СКАЧАННОЕ НЕ ЗАСЧИТЫВАЕТСЯ! Золото
Дата: Зарегистрирован   [ Тип: внутренний ] Как тут cкачать?
MAGNET ссылка
MAGNET ссылка


Скачать .torrent

16 KB

Статус: проверено DHT
Скачан: торрент - 132 раз, раздача полностью - 0 раз
Размер: 804 MB
Оценка:  - (Голосов: 0)
Поблагодарили: 0
Поделиться ссылкой на эту раздачу с друзьями:
В контактеFacebookОдноклассникиTwitterLivejournalМой МирLiveinternet
 

 
Показать сообщения:    


Вы не можете начинать темы
Вы не можете отвечать на сообщения
Вы не можете редактировать свои сообщения
Вы не можете удалять свои сообщения
Вы не можете голосовать в опросах
Вы не можете прикреплять файлы к сообщениям
Вы можете скачивать файлы