Loading...
Error

Скачать Белый воротничок / White Collar (Сезон 4, серии 01-10 из 16) (Джон Т. Кречмер, Кевин Брэй, Дэнни Гордон) [2012 г., драма, криминал, детектив, WEB-DLRip] [400p] [NewStudio] торрент без регистрации

Статистика раздачи
Размер:  7,27 GB   |    Скачан:  184 раза
Сидов:  1  [  0 KB/s  ]  

 
 
 
Автор Сообщение

leon030982

[] 


Белый воротничок / White Collar


Год выпуска: 2012
Страна: США
Жанр: драма, криминал, детектив
Продолжительность: ~ 00:44:00
Перевод: Профессиональный (многоголосый, закадровый) /NewStudio (Rumedia)/
Субтитры: нет

Режиссер: Джон Т. Кречмер, Кевин Брэй, Дэнни Гордон
В ролях:
Мэттью Бомер (Neal Caffrey), Тим ДиКей (Peter Burke), Уилли Гарсон (Mozzie), Шариф Аткинс (Jones), Тиффани Тиссен (Elizabeth Burke), Натали Моралес (Lauren Cruz), Джеймс Ребхорн (Reese Hughes), Александра Даддарио (Kate), Дайан Кэрролл (June), Глория Вотсис (Alex), Ноа Эммерик (Garrett Fowler), Пайпер Кенни (OPR Agent) и др.

Описание:
Сериал рассказывает о сотрудничестве гениального мошенника и агента ФБР. Нил Кэффри, невероятно обаятельный преступный ум, наконец-то был пойман своим извечным врагом, отличным агентом государственной безопасности Питером Берком. Когда Нил бежит из тюрьмы, чтобы найти свою пропавшую любовь, Питер ловит его еще раз. Нил предлагает ему не торопиться с отправкой в тюрьму, и рассмотреть возможность сотрудничества. Ведь Нил мог бы помочь словить самых “элитных” преступников, “белых воротничков” преступного мира. Питер понимает, что интуиция и преступный опыт Нила, которых нет у законопослушного агента, могут стать хорошим подспорьем в борьбе с криминалом.

Качество: WEB-DLRip 400p
Формат: AVI
Видео: 704x400, 23.976 fps, 1800 Kbps (0.267 bit/pixel)
Аудио #1: АС3, 48.0 KHz, 6 ch, 384 Kbps / NewStudio /
Аудио #2: АС3, 48.0 KHz, 6 ch, 384 Kbps / Оригинал /

Перевод: negenka
Редактор: Олег Папулов
Работа со звуком:: Baggio

| Сэмпл | IMDb | КиноПоиск

Format : AVI
Format/Info : Audio Video Interleave
File size : 748 MiB
Duration : 42mn 52s
Overall bit rate : 2 440 Kbps
Writing application : VirtualDubMod 1.5.10.2 (build 2540/release)
Writing library : VirtualDubMod build 2540/release
Video
ID : 0
Format : MPEG-4 Visual
Format profile : Advanced Simple@L5
Format settings, BVOP : 1
Format settings, QPel : No
Format settings, GMC : No warppoints
Format settings, Matrix : Custom
Codec ID : XVID
Codec ID/Hint : XviD
Duration : 42mn 52s
Bit rate : 1 658 Kbps
Width : 704 pixels
Height : 400 pixels
Display aspect ratio : 16:9
Frame rate : 23.976 fps
Color space : YUV
Chroma subsampling : 4:2:0
Bit depth : 8 bits
Scan type : Progressive
Compression mode : Lossy
Bits/(Pixel*Frame) : 0.246
Stream size : 508 MiB (68%)
Writing library : XviD 65
Audio #1
ID : 1
Format : AC-3
Format/Info : Audio Coding 3
Mode extension : CM (complete main)
Codec ID : 2000
Duration : 42mn 52s
Bit rate mode : Constant
Bit rate : 384 Kbps
Channel(s) : 6 channels
Channel positions : Front: L C R, Side: L R, LFE
Sampling rate : 48.0 KHz
Bit depth : 16 bits
Compression mode : Lossy
Stream size : 118 MiB (16%)
Alignment : Split accross interleaves
Interleave, duration : 42 ms (1.00 video frame)
Interleave, preload duration : 500 ms
Audio #2
ID : 2
Format : AC-3
Format/Info : Audio Coding 3
Mode extension : CM (complete main)
Codec ID : 2000
Duration : 42mn 52s
Bit rate mode : Constant
Bit rate : 384 Kbps
Channel(s) : 6 channels
Channel positions : Front: L C R, Side: L R, LFE
Sampling rate : 48.0 KHz
Bit depth : 16 bits
Compression mode : Lossy
Stream size : 118 MiB (16%)
Alignment : Split accross interleaves
Interleave, duration : 42 ms (1.00 video frame)
Interleave, preload duration : 500 ms
Внимание! Раздача ведётся путём добавления новых серий; при каждом добавлении создётся новый торрент. Чтобы начать докачку новой серии, пользователям необходимо сделать следующее:
(1) остановить скачивание,
(2) удалить старый торрент у себя из клиента (старые серии удалять не надо),
(3) скачать новый торрент и запустить его у себя в клиенте вместо старого, при этом указать клиенту путь в старую папку куда и должно происходить скачивание новых серий.
Ваш клиент при этом должен произвести хеширование (проверку) старой папки (если не производит сам - помогите ему сделать это), и будет докачивать только те серии которых у вас ещё нет. Старые серии при этом не удаляются, а продолжают раздаваться!
Eсли вы уже удалили старые серии, то предотвратить повторную закачку старых серий можно, отжав галочку в соответсвующих местах при запуске нового торрента.






Скачать Белый.воротничок.White.Collar.(Сезон.4.серии.01-10.из.16).(Джон.Т.Кречмер.Кевин.Брэй.Дэнни.Гордон).[2012.г.драма.криминал.детектив.WEB-DLRip].[400p].[NewStudio].torrent без регистрации
Золото ЗОЛОТАЯ РАЗДАЧА! СКАЧАННОЕ НЕ ЗАСЧИТЫВАЕТСЯ! Золото
Дата: Зарегистрирован   [ Тип: внутренний ] Как тут cкачать?
MAGNET ссылка
MAGNET ссылка


Скачать .torrent

19 KB

Статус: проверено DHT
Скачан: торрент - 184 раз, раздача полностью - 19 раз
Размер: 7,27 GB
Оценка:  5 (Голосов: 1)
Поблагодарили: 1
Поделиться ссылкой на эту раздачу с друзьями:
В контактеFacebookОдноклассникиTwitterLivejournalМой МирLiveinternet
 

 
Показать сообщения:    


Вы не можете начинать темы
Вы не можете отвечать на сообщения
Вы не можете редактировать свои сообщения
Вы не можете удалять свои сообщения
Вы не можете голосовать в опросах
Вы не можете прикреплять файлы к сообщениям
Вы можете скачивать файлы