Loading...
Error

Скачать Розвелл (НЛО: Операция прикрытия) / Roswell (Джереми Пол Кэйгэн / Jeremy Paul Kagan) [1994, Фантастика, драма, DVDRip] [DVO] (Союз Видео) торрент без регистрации

 
Статистика раздачи
Размер:  1,2 GB   |    Скачан:  152 раза
Сидов:  1  [  0 KB/s  ]  
 
Автор Сообщение

leon030982

[] 

Розвелл (НЛО: Операция прикрытия) / Roswell


Год выпуска: 1994
Страна: США
Жанр: Фантастика, драма
Продолжительность: 01:27:23
Перевод: Профессиональный (двухголосый закадровый) Союз Видео
Cубтитры: нет

Режиссер: Джереми Пол Кэйгэн / Jeremy Paul Kagan

В ролях: Кайл МакЛаклэн /Kyle MacLachlan/, Мартин Шин /Martin Sheen/, Дуайт Йокам /Dwight Yoakam/, Ксандер Беркли /Xander Berkeley/, Роберт Гантон /Robert Gunton/, Ким Грайст /Kim Griest/, Питер МакНикол /Peter MacNicol/, Джон М. Джексон /John M. Jackson/, Чарлз Мартин Смит /Charles Martin Smith

Описание: Молодой майор ВВС США Джесси Марсель в июле 1947 года оказался жертвой грязной игры, затеянной правительством. Спецслужбам нужно было скрыть аварию инопланетного корабля в районе города Росвелла, штат Нью Мексика. Джесси тогда заставили признать, что он ошибся при осмотре и принял обломки метеозонда за фрагменты корабля пришельцев. Через тридцать лет Марсель решает найти ответ на мучившую его все эти годы загадку. Однако правительственные службы надежно спрятали все концы в воду, и теперь нелегко докопаться до истины...

Доп. информация: Звук Fikaloid, рип dmitry2264.
Сэмпл: http://rusfolder.ru/files/31925576
Качество видео: DVDRip
Формат видео: AVI
Видео: 704x512 (1.38:1), 25 fps, XviD build 50 ~1776 kbps avg, 0.20 bit/pixel
Аудио: MPEG Audio Layer 3 48000Hz stereo 192kbps
General
Complete name : E:\Torrent\Розвелл.avi
Format : AVI
Format/Info : Audio Video Interleave
Format profile : OpenDML
File size : 1.20 GiB
Duration : 1h 27mn
Overall bit rate : 1 973 Kbps
Movie name : AVI-Mux GUI 1.17.8, Aug 30 2008 12:36:58
Writing application : AVI-Mux GUI 1.17.8, Aug 30 2008 12:36:58
Video
ID : 0
Format : MPEG-4 Visual
Format profile : AdvancedSimple@L5
Format settings, BVOP : Yes
Format settings, QPel : No
Format settings, GMC : No warppoints
Format settings, Matrix : Custom
Codec ID : XVID
Codec ID/Hint : XviD
Duration : 1h 27mn
Bit rate : 1 777 Kbps
Width : 704 pixels
Height : 512 pixels
Display aspect ratio : 1.375
Frame rate : 25.000 fps
Resolution : 24 bits
Colorimetry : 4:2:0
Scan type : Progressive
Bits/(Pixel*Frame) : 0.197
Stream size : 1.08 GiB (90%)
Writing library : XviD 1.2.1 (UTC 2008-12-04)
Audio
ID : 1
Format : MPEG Audio
Format version : Version 1
Format profile : Layer 3
Format_Settings_Mode : Joint stereo
Codec ID : 55
Codec ID/Hint : MP3
Duration : 1h 27mn
Bit rate mode : Constant
Bit rate : 192 Kbps
Channel(s) : 2 channels
Sampling rate : 48.0 KHz
Resolution : 16 bits
Stream size : 120 MiB (10%)
Alignment : Aligned on interleaves
Interleave, duration : 452 ms (11.30 video frames)
Interleave, preload duration : 216 ms



Скачать Розвелл.(НЛО.Операция.прикрытия).Roswell.(Джереми.Пол.Кэйгэн.Jeremy.Paul.Kagan).[1994.Фантастика.драма.DVDRip].[DVO].(Союз.Видео).torrent без регистрации
Золото ЗОЛОТАЯ РАЗДАЧА! СКАЧАННОЕ НЕ ЗАСЧИТЫВАЕТСЯ! Золото
Дата: Зарегистрирован   [ Тип: внутренний ] Как тут cкачать?
MAGNET ссылка
MAGNET ссылка


Скачать .torrent

13 KB

Статус: проверено DHT
Скачан: торрент - 152 раз, раздача полностью - 25 раз
Размер: 1,2 GB
Оценка:  - (Голосов: 0)
Поблагодарили: 1
Поделиться ссылкой на эту раздачу с друзьями:
В контактеFacebookОдноклассникиTwitterLivejournalМой МирLiveinternet
 

 
Показать сообщения:    


Вы не можете начинать темы
Вы не можете отвечать на сообщения
Вы не можете редактировать свои сообщения
Вы не можете удалять свои сообщения
Вы не можете голосовать в опросах
Вы не можете прикреплять файлы к сообщениям
Вы можете скачивать файлы