Loading...
Error

Скачать Драконы Навсегда / Dragons Forever / Fei lung mang jeung (Саммо Хунг Кам-Бо / Sammo Hung Kam-Bo) [1988 г., боевик, комедия, драма, DVDRip] 2x[MVO] торрент без регистрации

 
Статистика раздачи
Размер:  1,43 GB   |    Скачан:  135 раз
Сидов:  1  [  0 KB/s  ]  
 
Автор Сообщение

leon030982

[] 

Драконы Навсегда / Dragons Forever / Fei lung mang jeung


Год выпуска: 1988
Страна: Гонконг
Жанр: боевик, комедия, драма
Продолжительность: 01:29:51

Перевод 1: Профессиональный (многоголосый, закадровый) TV 1000 ACTION
Перевод 2: Профессиональный (многоголосый, закадровый) ТНТ

Режиссер: Саммо Хунг Кам-Бо / Sammo Hung Kam-Bo

В ролях: Джеки Чан, Саммо Хунг Кам-Бо, Юэнь Бьяо, Дик Вэй, Бенни Уркидез, Динни Йип, Полин Юнг, Кристал Квок, Юэнь Ва, Билли Чоу, Вонг Ю, Вонг Юк-Ван, Ву Ма, Ву Фунг, Джеймс Тьен, Джонни Чеунг, Лам Вэй, Ло Лье, Рой Чао, Стэнли фунг, Тай По, Филлип Ко, Фунг Хак-Он, Чан Лунг, Чин Кар-Лок, Чунг Фат, Шинг Фу-Он

Описание: Государственный адвокат Джонни (Джеки Чан) получает в качестве подзащитного бизнесмена – владельца завода, который отравляет воды соседнего озера, принадлежащего героине Динни Йип. Пытаясь разобраться в этом деле, Джонни привлекает двух своих друзей (Саммо Хунг и Юэнь Бьяо), сам в это время втираясь в доверие к кузине оппонентки (Полин Юнг). Но, как обычно, в дело вмешивается любовь, а на заводе, как вовремя выясняется, производятся наркотики, так что сомнений, чью сторону выбрать, у Джонни не возникает.

Рип от
Качество: DVDRip
Формат: AVI
Видео: Кодек: DivX, размер кадра: 720x400, битрейт видео: 2114 кб/c
Аудио 1: Яык: русский, кодек: MP3, битрейт аудио: 128 кб/с - TV 1000 ACTION
Аудио 2: Яык: русский, кодек: AC3, битрейт аудио: 192 кб/с - ТНТ
General
Format : AVI
Format/Info : Audio Video Interleave
File size : 1.43 GiB
Duration : 1h 29mn
Overall bit rate : 2 271 Kbps
Video
ID : 0
Format : MPEG-4 Visual
Format settings, BVOP : Yes
Format settings, QPel : No
Format settings, GMC : No warppoints
Format settings, Matrix : Default (H.263)
Muxing mode : Packed bitstream
Codec ID : DX50
Codec ID/Hint : DivX 5
Duration : 1h 29mn
Bit rate : 2 000 Kbps
Width : 720 pixels
Height : 400 pixels
Display aspect ratio : 16:9
Frame rate : 25.000 fps
Color space : YUV
Chroma subsampling : 4:2:0
Bit depth : 8 bits
Scan type : Progressive
Bits/(Pixel*Frame) : 0.278
Stream size : 1.26 GiB (88%)
Title : Video
Writing library : DivX 6.6.1.4
Audio #1
ID : 1
Format : MPEG Audio
Format version : Version 1
Format profile : Layer 3
Codec ID : 55
Codec ID/Hint : MP3
Duration : 1h 29mn
Bit rate mode : Constant
Bit rate : 128 Kbps
Channel(s) : 2 channels
Sampling rate : 48.0 KHz
Stream size : 82.3 MiB (6%)
Alignment : Split accross interleaves
Interleave, duration : 40 ms (1.00 video frame)
Interleave, preload duration : 500 ms
Title : Audio
Audio #2
ID : 2
Format : MPEG Audio
Format version : Version 1
Format profile : Layer 3
Codec ID : 55
Codec ID/Hint : MP3
Duration : 1h 29mn
Bit rate mode : Constant
Bit rate : 128 Kbps
Channel(s) : 2 channels
Sampling rate : 48.0 KHz
Stream size : 82.3 MiB (6%)
Alignment : Split accross interleaves
Interleave, duration : 40 ms (1.00 video frame)
Interleave, preload duration : 500 ms
Title : Audio




Скачать Драконы.Навсегда.Dragons.Forever.Fei.lung.mang.jeung.(Саммо.Хунг.Кам-Бо.Sammo.Hung.Kam-Bo).[1988.г.боевик.комедия.драма.DVDRip].2x[MVO].torrent без регистрации
Золото ЗОЛОТАЯ РАЗДАЧА! СКАЧАННОЕ НЕ ЗАСЧИТЫВАЕТСЯ! Золото
Дата: Зарегистрирован   [ Тип: внутренний ] Как тут cкачать?
MAGNET ссылка
MAGNET ссылка


Скачать .torrent

15 KB

Статус: проверено DHT
Скачан: торрент - 135 раз, раздача полностью - 94 раз
Размер: 1,43 GB
Оценка:  5 (Голосов: 1)
Поблагодарили: 1
Поделиться ссылкой на эту раздачу с друзьями:
В контактеFacebookОдноклассникиTwitterLivejournalМой МирLiveinternet
 

 
Показать сообщения:    


Вы не можете начинать темы
Вы не можете отвечать на сообщения
Вы не можете редактировать свои сообщения
Вы не можете удалять свои сообщения
Вы не можете голосовать в опросах
Вы не можете прикреплять файлы к сообщениям
Вы можете скачивать файлы