Loading...
Error

Скачать Фаза 4 / Четвертая фаза / Phase IV (Сол Бэсс / Saul Bass) [1974, Ужасы, фантастика, триллер, DVDRip-AVC] [VO] (В.Котов) торрент без регистрации

 
Статистика раздачи
Размер:  1,44 GB   |    Скачан:  173 раза
Сидов:  1  [  0 KB/s  ]  
 
Автор Сообщение

leon030982

[] 

Фаза 4 / Четвертая фаза / Phase IV
Год выпуска: 1974
Страна: США, Paramount Pictures
Жанр: Ужасы, фантастика
Продолжительность: 01:23:29
Перевод: Одноголосый закадровый (В.Котов)
Cубтитры: английские
Оригинальная аудиодорожка: английский

Режиссер: Сол Бэсс / Saul Bass

В ролях: Майкл Мерфи, Найджел Дэвенпорт, Линн Фредерик, Алан Гиффорд, Роберт Хендерсон, Хелен Хортон

Описание: В полупустынном районе Аризоны муравьи начинают вести себя странно, что заинтересовывает ученых. Эрнст Хаббс и его помощник Джеймс Леско прибывают в Аризону. Они размещают ультрасовременную лабораторию, защищенную металлическим куполом, и начинают опыты. Они еще не знают, что экологическое равновесие нарушилось, и люди рискуют оказаться в роли жертв

Качество видео: DVDRip-AVC
Формат видео: MKV
Видео: x264, 2151 кб/с, 720x480@853x480, 23.976 к/с, crf=18
Аудио 1: Русский (MP3, 2кн, 128 Кбит/с)
Аудио 2: Английский (AC3, 2 кн, 192 Кбит/с)
Субтитры: Английский, srt
Релиз русской дорожки на синемаскопе - subhuman
Рип с ДВД5 с синемагеддона и монтаж - мои (sasha20072007)
Лог кодирования и постеры - в контейнере
Озвучка: В.Котов
Сравнение с оригиналом DVD5
Другие названия:
Phase IV France / West Germany (video title)
Du tror inte dina ögon Sweden
Fase IV: distruzione Terra Italy
Negyedik fázis Hungary
Phase 4 West Germany
Phase Four UK
Phase Vier West Germany (TV title)
Sucesos en la IV fase Spain
Vaihe IV Finland
Слоган «Ravenous Invaders Controlled by a Terror Out in Space Commanded to Annihilate the World!»
Для удаления и добавления дорожек в mkv используйте бесплатную mkvmerge GUI 5.70
В полупустынном районе Аризоны муравьи начинают вести себя странно, что заинтересовывает ученых. Эрнст Хаббс и его помощник Джеймс Леско прибывают в Аризону. Они размещают ультрасовременную лабораторию, защищенную металлическим куполом, и начинают опыты. Они еще не знают, что экологическое равновесие нарушилось, и люди рискуют оказаться в роли жертв…
Одного эпизода фильма достаточно, чтобы получить полное представление о его идее: после того, как ученый разливает желтоватую токсичную жидкость с намерением уничтожить муравьев, камера следит под землей за очаровательными перепончатокрылыми. Мы видим, как они сменяют друг друга, чтобы перенести частичку пролитого продукта. Каждый раз, когда один муравей умирает, другой подхватывает его ношу, и так бесконечно, пока последний муравей не донесет до матки свой смертельный груз. Потом матка проглатывает продукт и откладывает желтое яйцо! Становится все понятно и страшно: муравьи обладают иммунитетом. В этом секрет этого научно-фантастического фильма, сыгранного тремя актерами в двух декорациях и без какой-либо помощи спецэффектов. Тем не менее, мы почему-то глубоко убеждены в смертельной опасности, которую представляют маленькие муравьи. Режиссеру удалось создать климат тревожный, тяжелый и наводящий на различные, чаще неприятные, мысли. А финальная сцена доводит зрителя до судорожного состояния. Найджел Девенпорт играл в фильмах «Подсматривающий» (1960), «Дракула» (1973), «Остров доктора Моро» (1976). Сол Басс позднее жаловался на слишком частые и настойчивые вмешательства в его работу представителей студии. Оценка 2, 5 балла.
Общее
Уникальный идентификатор : 178479105500832708123623069054772625871 (0x8645D34BA79F4030BB09F6B8CFCEC1CF)
Полное имя : F:\Chetvertaja.faza.1974.x264.DVDRip.(AVC).sasha20072007.mkv
Формат : Matroska
Версия формата : Version 2
Размер файла : 1,44 Гбайт
Продолжительность : 1 ч. 23 м.
Общий поток : 2474 Кбит/сек
Название фильма : Phase IV / 1974 / Четвертая фаза / rip by sasha20072007 (2012-08-02)
Дата кодирования : UTC 2012-08-02 12:07:06
Программа кодирования : mkvmerge v5.7.0 ('The Whirlwind') built on Jul 30 2012 20:20:16
Библиотека кодирования : libebml v1.2.3 + libmatroska v1.3.0
Attachment : Yes / Yes / Yes / Yes
Видео
Идентификатор : 1
Формат : AVC
Формат/Информация : Advanced Video Codec
Профиль формата : High@L4.1
Параметр CABAC формата : Да
Параметр ReFrames формата : 8 кадров
Идентификатор кодека : V_MPEG4/ISO/AVC
Продолжительность : 1 ч. 23 м.
Битрейт : 2151 Кбит/сек
Ширина : 720 пикселей
Высота : 480 пикселей
Соотношение сторон : 16:9
Соотношение сторон в оригинале : 16:9
Частота кадров : 23,976 кадра/сек
Стандарт вещания : NTSC
Цветовое пространство : YUV
Субдискретизация насыщенности : 4:2:0
Битовая глубина : 8 бит
Тип развёртки : Прогрессивная
Бит/(Пиксели*Кадры) : 0.260
Размер потока : 1,23 Гбайт (85%)
Библиотека кодирования : x264 core 125 r2200 999b753
Настройки программы : cabac=1 / ref=8 / deblock=1:-2:-2 / analyse=0x3:0x133 / me=umh / subme=10 / psy=1 / psy_rd=1.00:0.20 / mixed_ref=1 / me_range=24 / chroma_me=1 / trellis=2 / 8x8dct=1 / cqm=0 / deadzone=21,11 / fast_pskip=1 / chroma_qp_offset=-3 / threads=6 / lookahead_threads=1 / sliced_threads=0 / nr=0 / decimate=1 / interlaced=0 / bluray_compat=0 / constrained_intra=0 / bframes=8 / b_pyramid=2 / b_adapt=2 / b_bias=0 / direct=3 / weightb=1 / open_gop=0 / weightp=2 / keyint=220 / keyint_min=22 / scenecut=40 / intra_refresh=0 / rc_lookahead=60 / rc=2pass / mbtree=1 / bitrate=2151 / ratetol=1.0 / qcomp=0.60 / qpmin=0 / qpmax=69 / qpstep=4 / cplxblur=20.0 / qblur=0.5 / vbv_maxrate=17500 / vbv_bufsize=14000 / nal_hrd=none / ip_ratio=1.30 / aq=1:0.80
Default : Да
Forced : Нет
Основные цвета : BT.470-6 System B, BT.470-6 System G, BT.601-6 625, BT.1358 625, BT.1700 625 PAL, BT.1700 625 SECAM
Характеристики трансфера : BT.470-6 System B, BT.470-6 System G
Коэффициенты матрицы : BT.470-6 System B, BT.470-6 System G, BT.601-6 625, BT.1358 625, BT.1700 625 PAL, BT.1700 625 SECAM, IEC 61966-2-4 601
Аудио #1
Идентификатор : 2
Формат : MPEG Audio
Версия формата : Version 1
Профиль формата : Layer 3
Режим : Joint stereo
Расширение режима : MS Stereo
Идентификатор кодека : A_MPEG/L3
Идентификатор кодека/Подсказка : MP3
Продолжительность : 1 ч. 23 м.
Вид битрейта : Постоянный
Битрейт : 128 Кбит/сек
Каналы : 2 канала
Частота : 48,0 КГц
Метод сжатия : С потерями
Размер потока : 76,4 Мбайт (5%)
Заголовок : Русский (Вячеслав Котов)
Язык : Russian
Default : Да
Forced : Нет
Аудио #2
Идентификатор : 3
Формат : AC-3
Формат/Информация : Audio Coding 3
Расширение режима : CM (complete main)
Параметр Endianness формата : Big
Идентификатор кодека : A_AC3
Продолжительность : 1 ч. 23 м.
Вид битрейта : Постоянный
Битрейт : 192 Кбит/сек
Каналы : 2 канала
Расположение каналов : Front: L R
Частота : 48,0 КГц
Битовая глубина : 16 бит
Метод сжатия : С потерями
Размер потока : 115 Мбайт (8%)
Язык : English
Default : Нет
Forced : Нет
Текст
Идентификатор : 4
Формат : UTF-8
Идентификатор кодека : S_TEXT/UTF8
Идентификатор кодека/Информация : UTF-8 Plain Text
Язык : English
Default : Да
Forced : Нет
Меню
00:00:00.000 : :Chapter 01
00:07:37.000 : :Chapter 02
00:14:30.801 : :Chapter 03
00:17:29.602 : :Chapter 04
00:27:27.403 : :Chapter 05
00:36:03.803 : :Chapter 06
00:42:37.704 : :Chapter 07
00:47:40.804 : :Chapter 08
00:56:10.304 : :Chapter 09
01:02:31.105 : :Chapter 10
01:12:21.906 : :Chapter 11
01:20:47.707 : :Chapter 12
01:23:22.575 : :Chapter 13



Скачать Фаза.4.Четвертая.фаза.Phase.IV.(Сол.Бэсс.Saul.Bass).[1974.Ужасы.фантастика.триллер.DVDRip-AVC].[VO].(В.Котов).torrent без регистрации
Золото ЗОЛОТАЯ РАЗДАЧА! СКАЧАННОЕ НЕ ЗАСЧИТЫВАЕТСЯ! Золото
Дата: Зарегистрирован   [ Тип: внутренний ] Как тут cкачать?
MAGNET ссылка
MAGNET ссылка


Скачать .torrent

15 KB

Статус: проверено DHT
Скачан: торрент - 173 раз, раздача полностью - 17 раз
Размер: 1,44 GB
Оценка:  - (Голосов: 0)
Поблагодарили: 1
Поделиться ссылкой на эту раздачу с друзьями:
В контактеFacebookОдноклассникиTwitterLivejournalМой МирLiveinternet
 

 
Показать сообщения:    


Вы не можете начинать темы
Вы не можете отвечать на сообщения
Вы не можете редактировать свои сообщения
Вы не можете удалять свои сообщения
Вы не можете голосовать в опросах
Вы не можете прикреплять файлы к сообщениям
Вы можете скачивать файлы