Loading...
Error

Скачать Кто подставил кролика Роджера / Who Framed Roger Rabbit (Роберт Земекис) [1988, комедия, семейный, приключения, HDTVRip-AVC] [Dub] торрент без регистрации

 
Статистика раздачи
Размер:  1,46 GB   |    Скачан:  161 раз
Сидов:  1  [  0 KB/s  ]  
 
Автор Сообщение

Marsianka

[] 

Информация о фильме
Название: Кто подставил кролика Роджера
Оригинальное название: Who Framed Roger Rabbit
Год выхода: 1988
Жанр: комедия, семейный, приключения
Режиссер: Роберт Земекис / Robert Zemeckis
В ролях: Боб Хоскинс, Кристофер Ллойд, Джоанна Кэссиди, Чарльз Флайшер, Стабби Кэй, Элан Тилверн, Ричард ЛеПарментье, Лу Хирш, Бетси Брэнтли, Джоэл Силвер

О фильме:
Частный детектив расследует загадочное преступление, в котором подозревается мультипликационный персонаж кролик Роджер! Сыщик попадает в непредсказуемый мир, где его ожидают нарисованные злодеи с настоящими револьверами, говорящий автомобиль и соблазнительная мультяшная красотка. Наконец, на горизонте появляется мрачная фигура того, кто подставил кролика Роджера



Страна: США
Студия: Walt Disney Feature Animation, Touchstone Pictures
Продолжительность: 01:38:14
Перевод: Профессиональный (полное дублирование)



Файл
Кодек: H.264
Качество: HDTVRip-AVC
Видео: AVC; 912x512 (16:9); 1891 Kbps; 25 fps; 0,162 bpp
Звук: AC3; 192 Kbps; CBR; 2 ch
Общее
Уникальный идентификатор : 219467494450644864780514847857736329330 (0xA51BE6E56C3A9F0799467365CE6EA872)
Полное имя : D:VideoWho.Framed.Roger.Rabbit.1988.HDTVRip.mkv
Формат : Matroska
Версия формата : Version 1
Размер файла : 1,46 Гбайт
Продолжительность : 1 ч. 38 м.
Общий поток : 2126 Кбит/сек
Дата кодирования : UTC 2009-06-10 07:45:34
Программа кодирования : mkvmerge v2.6.0 ('Kelly watch the Stars') built on Mar 24 2009 15:23:17
Библиотека кодирования : libebml v0.7.7 + libmatroska v0.8.1

Видео
Идентификатор : 1
Формат : AVC
Формат/Информация : Advanced Video Codec
Профиль формата : High@L4.0
Параметр CABAC формата : Да
Параметр ReFrames формата : 12 кадров
Идентификатор кодека : V_MPEG4/ISO/AVC
Продолжительность : 1 ч. 38 м.
Битрейт : 1892 Кбит/сек
Ширина : 912 пикселей
Высота : 512 пикселей
Соотношение сторон : 16:9
Частота кадров : 25,000 кадров/сек
Цветовое пространство : YUV
Субдискретизация насыщенности : 4:2:0
Битовая глубина : 8 бит
Тип развёртки : Прогрессивная
Бит/(Пиксели*Кадры) : 0.162
Размер потока : 1,30 Гбайт (89%)
Default : Да
Forced : Нет

Аудио
Идентификатор : 2
Формат : AC-3
Формат/Информация : Audio Coding 3
Расширение режима : CM (complete main)
Параметр Endianness формата : Big
Идентификатор кодека : A_AC3
Продолжительность : 1 ч. 38 м.
Вид битрейта : Постоянный
Битрейт : 192 Кбит/сек
Каналы : 2 канала
Расположение каналов : Front: L R
Частота : 48,0 КГц
Битовая глубина : 16 бит
Метод сжатия : С потерями
Задержка видео : 8 мс.
Размер потока : 135 Мбайт (9%)
Default : Да
Forced : Нет










Релиз от:



Скачать Кто.подставил.кролика.Роджера.Who.Framed.Roger.Rabbit.(Роберт.Земекис).[1988.комедия.семейный.приключения.HDTVRip-AVC].[Dub].torrent без регистрации
Золото ЗОЛОТАЯ РАЗДАЧА! СКАЧАННОЕ НЕ ЗАСЧИТЫВАЕТСЯ! Золото
Дата: Зарегистрирован   [ Тип: внутренний ] Как тут cкачать?
MAGNET ссылка
MAGNET ссылка


Скачать .torrent

15 KB

Статус: проверено DHT
Скачан: торрент - 161 раз, раздача полностью - 52 раз
Размер: 1,46 GB
Оценка:  5 (Голосов: 1)
Поблагодарили: 4
Поделиться ссылкой на эту раздачу с друзьями:
В контактеFacebookОдноклассникиTwitterLivejournalМой МирLiveinternet
 

 
Показать сообщения:    


Вы не можете начинать темы
Вы не можете отвечать на сообщения
Вы не можете редактировать свои сообщения
Вы не можете удалять свои сообщения
Вы не можете голосовать в опросах
Вы не можете прикреплять файлы к сообщениям
Вы можете скачивать файлы