Loading...
Error

Скачать Хохотушка / Smiley Face (Грегг Араки) [2007, комедия, приключения, DVDRip] [DVO] торрент без регистрации

 
Статистика раздачи
Размер:  709 MB   |    Скачан:  139 раз
Сидов:  1  [  0 KB/s  ]  
 
Автор Сообщение

Marsianka

[] 

Информация о фильме
Название: Хохотушка
Оригинальное название: Smiley Face
Год выхода: 2007
Жанр: комедия, приключения
Режиссер: Грегг Араки / Gregg Araki
В ролях: Анна Фэрис, Адам Броди, Джон Чо, Мэттью Дж. Эванс, Дэвид Голдман, Майкл Хичкок, Джейма Мейс

О фильме:
Юная актриса Джейн, не раз баловавшаяся травкой, однажды случайным образом сьедает целый поднос кексов с марихуанной своего соседа, а впереди день полный забот, с которыми ей предстоит справится не смотря ни на что.


Страна: США, Германия
Студия: First Look International
Продолжительность: 01:24:10
Перевод: Профессиональный (двухголосый, закадровый)

Файл
Кодек: XviD / MP3
Качество: DVDRip
Видео: XviD, 608x336 (1.80:1), 23.98 fps, 1039 Kbps, 0.212 bit/pixel
Звук: MP3, 48 kHz, 2 ch, 128 kbps
Общее
Полное имя : e:Hohotushka.avi
Формат : AVI
Формат/Информация : Audio Video Interleave
Размер файла : 709 Мбайт
Продолжительность : 1 ч. 24 м.
Общий поток : 1177 Кбит/сек
Программа кодирования : VirtualDubMod 1.5.4.1 (build 2178/release)
Библиотека кодирования : VirtualDub build 32842/release

Видео
Идентификатор : 0
Формат : MPEG-4 Visual
Профиль формата : Advanced Simple@L5
Параметр BVOP формата : 1
Параметр QPel формата : Нет
Параметр GMC формата : Без точки перехода
Параметр матрицы формата : Выборочная
Идентификатор кодека : XVID
Идентификатор кодека/Подсказка : XviD
Продолжительность : 1 ч. 24 м.
Битрейт : 1039 Кбит/сек
Ширина : 608 пикселей
Высота : 336 пикселей
Соотношение сторон : 16:9
Частота кадров : 23,976 кадра/сек
Цветовое пространство : YUV
Субдискретизация насыщенности : 4:2:0
Битовая глубина : 8 бит
Тип развёртки : Прогрессивная
Метод сжатия : С потерями
Бит/(Пиксели*Кадры) : 0.212
Размер потока : 626 Мбайт (88%)
Библиотека кодирования : XviD 1.2.0.dev47 (UTC 2006-11-01)

Аудио
Идентификатор : 1
Формат : MPEG Audio
Версия формата : Version 1
Профиль формата : Layer 3
Режим : Joint stereo
Расширение режима : MS Stereo
Идентификатор кодека : 55
Идентификатор кодека/Подсказка : MP3
Продолжительность : 1 ч. 24 м.
Вид битрейта : Постоянный
Битрейт : 128 Кбит/сек
Каналы : 2 канала
Частота : 48,0 КГц
Метод сжатия : С потерями
Размер потока : 77,1 Мбайт (11%)
Выравнивание : Разделение по промежуткам
Продолжительность промежутка : 42 мс. (1,00 видеокадр)
Время предзагрузки промежутка : 500 мс.



Скачать Хохотушка.Smiley.Face.(Грегг.Араки).[2007.комедия.приключения.DVDRip].[DVO].torrent без регистрации
Золото ЗОЛОТАЯ РАЗДАЧА! СКАЧАННОЕ НЕ ЗАСЧИТЫВАЕТСЯ! Золото
Дата: Зарегистрирован   [ Тип: внутренний ] Как тут cкачать?
MAGNET ссылка
MAGNET ссылка


Скачать .torrent

14 KB

Статус: проверено DHT
Скачан: торрент - 139 раз, раздача полностью - 42 раз
Размер: 709 MB
Оценка:  - (Голосов: 0)
Поблагодарили: 4
Поделиться ссылкой на эту раздачу с друзьями:
В контактеFacebookОдноклассникиTwitterLivejournalМой МирLiveinternet
 

 
Показать сообщения:    


Вы не можете начинать темы
Вы не можете отвечать на сообщения
Вы не можете редактировать свои сообщения
Вы не можете удалять свои сообщения
Вы не можете голосовать в опросах
Вы не можете прикреплять файлы к сообщениям
Вы можете скачивать файлы